Dolly Kitty Aur Woh Chamakte Sitare 2020 X264 720p Esub NetFLix Dual Audio Hindi English GOPI SAHI

Torrent Details


Dolly Kitty Aur Woh Chamakte Sitare 2020 x264 720p Esub NetFLix Dual Audio Hindi English GOPI SAHI

NAME
Dolly Kitty Aur Woh Chamakte Sitare 2020 x264 720p Esub NetFLix Dual Audio Hindi English GOPI SAHI.torrent
CATEGORY
Movies
INFOHASH
2431732bcab1385de519650cc11bfa2a8aeb402f
SIZE
942 MB in 1 file
ADDED
Uploaded on 20-09-2020 by our crawler pet called "Spidey".
SWARM
0 seeders & 0 peers
RATING
No votes yet.

Please login to vote for this torrent.


Description

https://www.jattrules.com/




Dolly Kitty Aur Woh Chamakte Sitare 2020 x264 720p Esub NetFLix Dual Audio Hindi English GOPI SAHI


Format

: Matroska

Format version : Version 4

File size : 942 MiB

Duration : 2 h 0 min

Overall bit rate : 1 094 kb/s

Movie name : Dolly Kitty Aur Woh Chamakte Sitare 2020 GOPI SAHI

Encoded date : UTC 2020-09-19 08:42:17


Video

ID : 1

Format : AVC

Format/Info : Advanced Video Codec

Format profile : [email protected]

Format settings : CABAC / 5 Ref Frames

Format settings, CABAC : Yes

Format settings, Reference fra : 5 frames

Codec ID : V_MPEG4/ISO/AVC

Duration : 2 h 0 min

Bit rate : 899 kb/s

Width : 1 280 pixels

Height : 544 pixels

Display aspect ratio : 2.35:1

Frame rate mode : Constant

Frame rate : 24.000 FPS

Color space : YUV

Chroma subsampling : 4:2:0

Bit depth : 8 bits

Scan type : Progressive

Bits/(Pixel*Frame) : 0.054

Stream size : 774 MiB (82%)

Title : GOPI SAHI

Writing library : x264 core 157 r2935 545de2f


Audio #1

ID : 2

Format : AAC LC

Format/Info : Advanced Audio Codec Low Complexity

Codec ID : A_AAC-2

Duration : 2 h 0 min

Bit rate : 96.0 kb/s

Channel(s) : 2 channels

Channel layout : L R

Sampling rate : 48.0 kHz

Frame rate : 46.875 FPS (1024 SPF)

Compression mode : Lossy

Delay relative to video : -21 ms

Stream size : 82.8 MiB (9%)

Title : GOPI SAHI

Language : Hindi

Default : Yes

Forced : No


Audio #2

ID : 3

Format : AAC LC

Format/Info : Advanced Audio Codec Low Complexity

Codec ID : A_AAC-2

Duration : 2 h 0 min

Bit rate : 96.0 kb/s

Channel(s) : 2 channels

Channel layout : L R

Sampling rate : 48.0 kHz

Frame rate : 46.875 FPS (1024 SPF)

Compression mode : Lossy

Delay relative to video : -21 ms

Stream size : 82.9 MiB (9%)

Title : GOPI SAHI

Language : English

Default : No

Forced : No


Text

ID : 4

Format : UTF-8

Codec ID : S_TEXT/UTF8

Codec ID/Info : UTF-8 Plain Text

Duration : 1 h 56 min

Bit rate : 40 b/s

Count of elements : 1343

Stream size : 34.8 KiB (0%)

Title : GOPI SAHI

Language : English

Default : Yes

Forced : No





Discussion

Comments 0

Post Your Comment

Files in this torrent

FILENAMESIZE
Dolly Kitty Aur Woh Chamakte Sitare 2020 x264 720p Esub NetFLix Dual Audio Hindi English GOPI SAHI.mkv942.4 MB

Alternative Torrents for 'Dolly Kitty Aur Woh Chamakte Sitare Esub NetFLix Dual Audio Hindi English GOPI SAHI'.

TORRENT NAMEADDEDSIZESEEDSPEERSHEALTH
9/20/2020942 MB00