Italo Disco - Angel Of The Night (Album) 2020 Flac (tracks)

Torrent Details


Italo Disco - Angel of the Night (Album) 2020 Flac (tracks)

NAME
Italo Disco - Angel of the Night (Album) 2020 Flac (tracks).torrent
CATEGORY
Music
INFOHASH
22f5fab94fe3322dd16989335fb8e562c92e8896
SIZE
557 MB in 17 files
ADDED
Uploaded on 20-09-2020 by our crawler pet called "Spidey".
SWARM
0 seeders & 0 peers
RATING
No votes yet.

Please login to vote for this torrent.


Description

Название: Angel of the Night (Album)

Исполнитель: Italo Disco

Год: 2020

Жанр: Italo-Disco

Страна: Germany



Продолжительность: 01:17:17

Формат/Кодек: FLAC

Битрейт аудио: Lossless



Официальный сайт



01 A ngel of the Night 03:40

02 Mars Needs Woman 04:38

03 Italo Disco 05:07

04 The Eagle Has Landed 05:45

05 Hard and Fast 05:30

06 Move Your Body 05:20

07 Bring That Beat Back 04:56

08 The Vampire 04:02

09 Storm Clouds over Russia 04:35

10 Return to the Classics 04:50

11 Love in Nature 04:18

12Trans-Siberian Railway 04:11

13 Back to the 80´S03:31

14 Protecting Angel 04:16

15 Divide the Light from the Darkness 04:21

16 I Believe 08:12




Лог проверки качества

ANALYZER: auCDtect: CD records authenticity detector, version 0.8.2

Copyright (c) 2004 Oleg Berngardt. All rights reserved.

Copyright (c) 2004 Alexander Djourik. All rights reserved.



FILE: 16 I Believe.flac

Size: 60430473 Hash: AC03A7DE57F42642EC0CF706CBBB70B5 Accuracy: -m0

Conclusion: CDDA 100%

Signature: 006FA2644423D732120CC7699E1D6C17408E8EE6

FILE: 15 Divide the Light from the Darkness.flac

Size: 31046858 Hash: 0A5BFB7CF2D11FA20673FFCCBF20AB8B Accuracy: -m0

Conclusion: CDDA 100%

Signature: 1D804B16585C03D099B1D3D899457B2A15CC4440

FILE: 14 Protecting Angel.flac

Size: 31657036 Hash: 3B345E52DA4DBBBA43D8591CF8BC9B94 Accuracy: -m0

Conclusion: CDDA 100%

Signature: 5C3A26B58D946C76F665D3B57EAE8B66123912CA

FILE: 13 Back to the 80´S.flac

Size: 28725944 Hash: F10824CAAC8B51E80371DB4400FE199B Accuracy: -m0

Conclusion: CDDA 99%

Signature: 4AAE3AFD4BC1249604F8FD4F372DF678C4F57088

FILE: 12 Trans-Siberian Railway.flac

Size: 32884059 Hash: 98879D72D3D5FA3CCAA357B90B1F374D Accuracy: -m0

Conclusion: CDDA 100%

Signature: 2A28E52BBDD1EA7D323B7099CFFDBAC9D29F004F

FILE: 11 Love in Nature.flac

Size: 31665042 Hash: 7DF708CF14B91C4F29CE0883C933D7C2 Accuracy: -m0

Conclusion: CDDA 99%

Signature: 1B813A8CA2A6E761544BE23324AAB0C7304BDA40

FILE: 10 Return to the Classics.flac

Size: 34875312 Hash: 4D0CF4DAAB58ED1AFDE7B062D540C551 Accuracy: -m0

Conclusion: CDDA 100%

Signature: DC015BE8B8399EBAAD2D0D46EB70BC228AC44F2B

FILE: 09 Storm Clouds over Russia.flac

Size: 33654262 Hash: 8AA15245640B6983759BE23B4EB08553 Accuracy: -m0

Conclusion: CDDA 100%

Signature: 95BC8312924504ED2504776FB75221C4772B513D

FILE: 08 The Vampire.flac

Size: 29557996 Hash: 9955BF98215DC5C7CC10C8274028CF76 Accuracy: -m0

Conclusion: CDDA 100%

Signature: 8001E7F28837021282210538AB659DDE0490C007

FILE: 07 Bring That Beat Back.flac

Size: 38313352 Hash: 30A8DC7629174409D2B4FB86F586EF83 Accuracy: -m0

Conclusion: CDDA 100%

Signature: A8F73953E37B672A4E64A3BB31AB3F1D65557145

FILE: 06 Move Your Body.flac

Size: 40747787 Hash: B547A083DC53FD327CBC4D0087158377 Accuracy: -m0

Conclusion: CDDA 100%

Signature: 5AD839957AD27477130A700902A05AC660CE2E0A

FILE: 05 Hard and Fast.flac

Size: 43256376 Hash: BD649CB8889954461679C75820530764 Accuracy: -m0

Conclusion: CDDA 100%

Signature: 70FC86AE4F448883CC91041A8AAE5FC264418764

FILE: 04 The Eagle Has Landed.flac

Size: 42349649 Hash: 2FF61B31EEF91884EEA97545A9CA425D Accuracy: -m0

Conclusion: CDDA 100%

Signature: 33B72254ABCFC133B4B1BEF0CB02CBF906F2BF1D

FILE: 03 Italo Disco.flac

Size: 39161369 Hash: CA41149524702BF2A005F5019543A8B0 Accuracy: -m0

Conclusion: CDDA 100%

Signature: 9AA1FCFA374FD9919509A23FBB3EA7313A5AF13B

FILE: 02 Mars Needs Woman.flac

Size: 35882927 Hash: C1E4AA8341143EE9E128EF5EA3632F3A Accuracy: -m0

Conclusion: CDDA 100%

Signature: 1FF1E379340AD351DCBDF5CEC11384120FC5339F

FILE: 01 Angel of the Night.flac

Size: 29348322 Hash: 1345CF5D07A6B48909F6252374172297 Accuracy: -m0

Conclusion: CDDA 100%

Signature: 6131F8207B2FB5062A0C29C8A3A68D4DA3A2BE11







Dr-log

Analyzed folder: D:ВидеоклипыconverterItalo Disco - Angel of the Night (Album)

----------------------------------------------------------------------------------------------

DR Peak RMS Filename

----------------------------------------------------------------------------------------------



DR5 -0.10 dB -6.62 dB 01 Angel of the Night.wav

DR6 -0.10 dB -6.75 dB 02 Mars Needs Woman.wav

DR5 -0.10 dB -6.33 dB 03 Italo Disco.wav

DR5 -0.10 dB -5.97 dB 04 The Eagle Has Landed.wav

DR6 -0.10 dB -6.94 dB 05 Hard and Fast.wav

DR5 -0.10 dB -6.41 dB 06 Move Your Body.wav

DR5 -0.10 dB -6.28 dB 07 Bring That Beat Back.wav

DR6 -0.10 dB -6.94 dB 08 The Vampire.wav

DR5 -0.10 dB -6.90 dB 09 Storm Clouds over Russia.wav

DR6 -0.10 dB -7.06 dB 10 Return to the Classics.wav

DR6 -0.10 dB -7.35 dB 11 Love in Nature.wav

DR6 -0.10 dB -6.81 dB 12 Trans-Siberian Railway.wav

DR5 -0.10 dB -5.56 dB 14 Protecting Angel.wav

DR5 -0.10 dB -6.03 dB 15 Divide the Light from the Darkness.wav

DR5 -0.10 dB -6.38 dB 16 I Believe.wav

----------------------------------------------------------------------------------------------



Number of files: 15

Official DR value: DR5

Discussion

Comments 0

Post Your Comment

Files in this torrent

FILENAMESIZE
01 Angel of the Night.flac28 MB
02 Mars Needs Woman.flac34.2 MB
03 Italo Disco.flac37.3 MB
04 The Eagle Has Landed.flac40.4 MB
05 Hard and Fast.flac41.3 MB
06 Move Your Body.flac38.9 MB
07 Bring That Beat Back.flac36.5 MB
08 The Vampire.flac28.2 MB
09 Storm Clouds over Russia.flac32.1 MB
10 Return to the Classics.flac33.3 MB
11 Love in Nature.flac30.2 MB
12 Trans-Siberian Railway.flac31.4 MB
13 Back to the 80´S.flac27.4 MB
14 Protecting Angel.flac30.2 MB
15 Divide the Light from the Darkness.flac29.6 MB
16 I Believe.flac57.6 MB
cover.jpg317.9 KB

Alternative Torrents for 'Italo Disco Angel of Night Album Flac tracks'.

TORRENT NAMEADDEDSIZESEEDSPEERSHEALTH
9/20/2020557 MB00