Extracted 2012 English French NTSC DVD-R (RLG)

Torrent Details


Extracted 2012  English French NTSC DVD-R (RLG)

NAME
Extracted 2012 English French NTSC DVD-R (RLG).torrent
CATEGORY
Movies
INFOHASH
0047c295477e8ed1c1c035b07e4e19424e27abd7
SIZE
4.1 GB in 21 files
ADDED
Uploaded on 09-12-2013 by our crawler pet called "Spidey".
SWARM
0 seeders & 0 peers
RATING
No votes yet.

Please login to vote for this torrent.


Description



http://www.imdb.com/title/tt1757746/
A scientist who has invented a technique to watch people's memories finds himself in a dangerous situation after he's tasked with entering a heroin addict's mind to see whether the man committed murder.

Languages: English , French
Subtitles: English (CC with VLC Player)

For Newer Users.
Simply Drag downloaded folder to your Media Player. This is a NTSC DVD.
This is ripped so you would have best quality, menu, bonus/special feature, language options etc.
[b]Note: All DVDs maynot have have all featues.[/b]



Video
ID : 224 (0xE0)
Format : MPEG Video
Format version : Version 2
Format profile : [email protected]
Format settings, BVOP : Yes
Format settings, Matrix : Custom
Format settings, GOP : Variable
Duration : 23mn 43s
Bit rate mode : Variable
Bit rate : 4 823 Kbps
Maximum bit rate : 9 800 Kbps
Width : 720 pixels
Height : 480 pixels
Display aspect ratio : 16:9
Frame rate : 23.976 fps
Standard : NTSC
Color space : YUV
Chroma subsampling : 4:2:0
Bit depth : 8 bits
Scan type : Progressive
Scan order : 2:3 Pulldown
Compression mode : Lossy
Bits/(Pixel*Frame) : 0.582
Time code of first frame : 01:23:31:02
Time code source : Group of pictures header
Stream size : 819 MiB (80%)

Audio
ID : 189 (0xBD)-128 (0x80)
Format : AC-3
Format/Info : Audio Coding 3
Mode extension : CM (complete main)
Format settings, Endianness : Big
Muxing mode : DVD-Video
Duration : 23mn 44s
Bit rate mode : Constant
Bit rate : 448 Kbps
Channel count : 6 channels
Channel positions : Front: L C R, Side: L R, LFE
Sampling rate : 48.0 KHz
Bit depth : 16 bits
Compression mode : Lossy
Delay relative to video : -558ms
Stream size : 76.1 MiB

Discussion

Comments 0

Post Your Comment

Files in this torrent

FILENAMESIZE
VIDEO_TS/VIDEO_TS.BUP12 KB
VIDEO_TS/VIDEO_TS.IFO12 KB
VIDEO_TS/VTS_01_0.BUP74 KB
VIDEO_TS/VTS_01_0.IFO74 KB
VIDEO_TS/VTS_01_0.VOB68.4 MB
VIDEO_TS/VTS_01_1.VOB1024 MB
VIDEO_TS/VTS_01_2.VOB1024 MB
VIDEO_TS/VTS_01_3.VOB1024 MB
VIDEO_TS/VTS_01_4.VOB884.4 MB
VIDEO_TS/VTS_02_0.BUP16 KB
VIDEO_TS/VTS_02_0.IFO16 KB
VIDEO_TS/VTS_02_1.VOB223.4 MB
VIDEO_TS/VTS_03_0.BUP12 KB
VIDEO_TS/VTS_03_0.IFO12 KB
VIDEO_TS/VTS_03_1.VOB10 KB
VIDEO_TS/VTS_04_0.BUP14 KB
VIDEO_TS/VTS_04_0.IFO14 KB
VIDEO_TS/VTS_04_1.VOB40 KB
VIDEO_TS/VTS_05_0.BUP12 KB
VIDEO_TS/VTS_05_0.IFO12 KB
VIDEO_TS/VTS_05_1.VOB10 KB

Alternative Torrents for 'Extracted English French NTSC DVDR RLG'.

TORRENT NAMEADDEDSIZESEEDSPEERSHEALTH
8/8/2020696 MB1302176
8/8/2020694 MB851176
8/8/20201.4 GB72685
7/31/2020695 MB65436
Yesterday694 MB644206
8/3/2020697 MB61239
Yesterday694 MB54798
8/1/2020696 MB40921
8/1/2020696 MB38537
Yesterday695 MB34152
7/29/2020695 MB33515
8/3/2020696 MB31234
8/3/2020696 MB31113
8/3/2020697 MB29616
8/3/2020346 MB29330