S S D 2008 DVDRip-AVC ExKinoRay

Torrent Details


S S D 2008 DVDRip-AVC<span style=color:#fc9c6d> ExKinoRay</span>

NAME
S S D 2008 DVDRip-AVC ExKinoRay.torrent
CATEGORY
Movies
INFOHASH
df29dd1c341b3b435533c5e0dc61ba297ea358f9
SIZE
745 MB in 1 file
ADDED
Uploaded on 24-09-2020 by our crawler pet called "Spidey".
SWARM
0 seeders & 0 peers
RATING
No votes yet.

Please login to vote for this torrent.


Description

Информация о фильме

Название: ССД: Смерть Советским Детям

Год выхода: 2008

Жанр: Ужасы

Режиссер: Вадим Шмелев

В ролях: Дмитрий Кубасов, Евгения Брик, Артём Мазунов, Иван Николаев, Станислав Эрдлей, Карина Мындровская, Екатерина Копанова, Вероника Иващенко, Екатерина Носик, Станислав Шмелёв, Анфиса Чехова, Александр Макогон, Игорь Арташонов, Павел Сметанкин, Сергей Бурунов, Данила Ариков, Андрей Хворов



О фильме:

На телевидении запускается уникальное реалити-шоу, где группа молодых людей должна отправиться на территорию советского пионерского лагеря и провести там определённое время. Каждую неделю по итогам голосования один из участников проекта должен отправиться домой, а оставшийся финалист получит хороший выигрыш. Когда участники прибыли в пионерлагерь, неизвестный маньяк устраивает собственное шоу и выбирает для своих жертв способ убийства как в старых детских страшилках, которые были так популярны среди советских детей.









Страна: Россия

Студия: Красная стрела

Продолжительность: 01:33:19

Язык: Русский



Файл

Формат: MKV

Качество: DVDRip-AVC

Видео: MPEG-4 AVC, 756x322, 1039 Кбит/с

Аудио: AAC-HE, 2 ch, 76 Кбит/с

Субтитры: Нет



MIОбщее

Уникальный идентификатор : 216802451265237713542020623883453876966 (0xA31AA21F590143019396175275804AE6)

Полное имя : D:MOVIESS.S.D.2008.DVDRip-AVC.ExKinoRay.mkv

Формат : Matroska

Версия формата : Version 4

Размер файла : 745 Мбайт

Продолжительность : 1 ч. 33 м.

Общий поток : 1 116 Кбит/сек

Дата кодирования : UTC 2020-09-24 04:39:06

Программа кодирования : mkvmerge v45.0.0 ('Heaven in Pennies') 64-bit

Библиотека кодирования : libebml v1.3.10 + libmatroska v1.5.2



Видео

Идентификатор : 1

Формат : AVC

Формат/Информация : Advanced Video Codec

Профиль формата : [email protected]

Настройки формата : CABAC / 15 Ref Frames

Параметр CABAC формата : Да

Параметр RefFrames формата : 15 кадров

Идентификатор кодека : V_MPEG4/ISO/AVC

Продолжительность : 1 ч. 33 м.

Битрейт : 1 039 Кбит/сек

Ширина : 756 пикселей

Высота : 322 пикселя

Соотношение сторон : 2,35:1

Режим частоты кадров : Постоянный

Частота кадров : 25,000 кадров/сек

Цветовое пространство : YUV

Субдискретизация насыщенности : 4:2:0

Битовая глубина : 8 бит

Тип развёртки : Прогрессивная

Бит/(Пиксели*Кадры) : 0.171

Размер потока : 693 Мбайт (93%)

Библиотека кодирования : x264 core 160 r3000 33f9e14

Настройки программы : cabac=1 / ref=15 / deblock=1:-3:-3 / analyse=0x3:0x133 / me=umh / subme=10 / psy=1 / psy_rd=1.05:0.12 / mixed_ref=1 / me_range=32 / chroma_me=1 / trellis=2 / 8x8dct=1 / cqm=0 / deadzone=21,11 / fast_pskip=0 / chroma_qp_offset=-3 / threads=6 / lookahead_threads=1 / sliced_threads=0 / nr=0 / decimate=0 / interlaced=0 / bluray_compat=0 / constrained_intra=0 / bframes=12 / b_pyramid=2 / b_adapt=2 / b_bias=0 / direct=3 / weightb=1 / open_gop=0 / weightp=2 / keyint=250 / keyint_min=25 / scenecut=40 / intra_refresh=0 / rc=2pass / mbtree=0 / bitrate=1039 / ratetol=1.0 / qcomp=0.60 / qpmin=0 / qpmax=69 / qpstep=4 / cplxblur=20.0 / qblur=0.5 / ip_ratio=1.40 / pb_ratio=1.30 / aq=1:1.00

Default : Да

Forced : Нет

Цветовой диапазон : Limited

Основные цвета : BT.709

Характеристики трансфера : BT.709

Коэффициенты матрицы : BT.709



Аудио

Идентификатор : 2

Формат : AAC LC SBR

Формат/Информация : Advanced Audio Codec Low Complexity with Spectral Band Replication

Коммерческое название : HE-AAC

Настройки формата : Explicit

Идентификатор кодека : A_AAC-2

Продолжительность : 1 ч. 33 м.

Битрейт : 76,0 Кбит/сек

Каналы : 2 канала

Channel layout : L R

Частота : 48,0 КГц

Частота кадров : 23,438 кадра/сек (2048 SPF)

Метод сжатия : С потерями

Задержка видео : 31 мс.

Размер потока : 50,7 Мбайт (7%)

Default : Да

Forced : Нет



Меню

00:00:00.000 : en:Chapter 01

00:08:21.080 : en:Chapter 02

00:13:42.360 : en:Chapter 03

00:21:24.280 : en:Chapter 04

00:29:40.560 : en:Chapter 05

00:39:26.040 : en:Chapter 06

00:44:24.680 : en:Chapter 07

00:51:30.520 : en:Chapter 08

00:59:31.480 : en:Chapter 09

01:10:50.160 : en:Chapter 10

01:22:28.520 : en:Chapter 11

01:30:27.120 : en:Chapter 12

01:33:19.040 : en:Chapter 13

Скриншоты





Discussion

Comments 0

Post Your Comment

Files in this torrent

FILENAMESIZE
S.S.D.2008.DVDRip-AVC.ExKinoRay.mkv744.9 MB

Alternative Torrents for 'DVDRipAVC'.

TORRENT NAMEADDEDSIZESEEDSPEERSHEALTH
11/6/20191.4 GB00
7/24/20191.4 GB00
4/29/20191.4 GB00
4/18/20191.4 GB00
4/17/20194.2 GB00
3/5/20197 GB00
3/4/20191.5 GB00