Lost Girls And Love Hotels 2020 XviD WEB-DLRip-MediaBit

Torrent Details

Lost Girls and Love Hotels 2020 XviD WEB-DLRip-MediaBit

NAME
Lost Girls and Love Hotels 2020 XviD WEB-DLRip-MediaBit.torrent
CATEGORY
Movies
INFOHASH
aedcac542862ab8836753809c34a39bf459cc900
SIZE
1.4 GB in 1 file
ADDED
Uploaded on 25-09-2020 by our crawler pet called "Spidey".
SWARM
10 seeders & 2 peers
RATING
No votes yet.

Please login to vote for this torrent.


Description

Информация о фильме

Название: Все оттенки Токио

Оригинальное название: Lost Girls and Love Hotels

Год выхода: 2020

Жанр: Триллер, драма

Режиссер: Уильям Олссон

В ролях: Александра Даддарио, Такэхиро Хира, Кэрис ван Хаутен, Даша Тэраниси, Марико Цуцуи, Анастасия Насу, Эндрю Ротни, Элизабет Ларена, Асука Куросава, Кейт Кастонгуэй



О фильме: Пытаясь бежать от прошлого, Маргарет переезжает в Японию. Днем она преподает английский, а ночью ищет впечатлений в экзотической жизни Токио с его шумными барами, опасными связями и отелями любви. Но однажды в городе пропадает очень похожая на нее девушка, а саму Маргарет затягивает безумный роман с загадочным красавцем-якудза, который втягивает ее в мир запретных наслаждений.







Страна: США, Япония

Студия: Blackbird, Wandering Trail Pictures

Продолжительность: 01:37:11

Перевод: Любительский многоголосый | @[email protected]



Файл

Кодек: XviD

Качество: WEB-DLRip

Видео: 1907 Кбит/с, 720x384, 23.976 кадр/с

Звук: AC3, 48 Гц, 192 Кбит/сек, 2 ch (L + R) | MVO | @[email protected]





MIОбщее

Полное имя : D:ТоррентыLost.Girls.and.Love.Hotels.2020.1080p.AMZN.WEBRip.DDP5.1.x264-NTGLost.Girls.and.Love.Hotels.2020.XviD.WEB-DLRip-MediaBit.avi

Формат : AVI

Формат/Информация : Audio Video Interleave

Профиль формата : OpenDML

Размер файла : 1,43 Гбайт

Продолжительность : 1 ч. 37 м.

Общий поток : 2 110 Кбит/сек

Название фильма : Lost Girls and Love Hotels (2020)

Программа кодирования : Lavf58.20.100



Видео

Идентификатор : 0

Формат : MPEG-4 Visual

Профиль формата : Advanced [email protected]

Настройки формата : BVOP1 / Custom Matrix

Параметр BVOP формата : 1

Параметр QPel формата : Нет

Параметр GMC формата : Без точки перехода

Параметр матрицы формата : Выборочная

Идентификатор кодека : XVID

Идентификатор кодека/Подсказка : XviD

Продолжительность : 1 ч. 37 м.

Битрейт : 1 907 Кбит/сек

Ширина : 720 пикселей

Высота : 384 пикселя

Соотношение сторон : 1,85:1

Частота кадров : 23,976 (24000/1001) кадра/сек

Цветовое пространство : YUV

Субдискретизация насыщенности : 4:2:0

Битовая глубина : 8 бит

Тип развёртки : Прогрессивная

Метод сжатия : С потерями

Бит/(Пиксели*Кадры) : 0.288

Размер потока : 1,29 Гбайт (90%)

Заголовок : MediaBit

Библиотека кодирования : XviD 67



Аудио

Идентификатор : 1

Формат : AC-3

Формат/Информация : Audio Coding 3

Коммерческое название : Dolby Digital

Идентификатор кодека : 2000

Продолжительность : 1 ч. 37 м.

Вид битрейта : Постоянный

Битрейт : 192 Кбит/сек

Каналы : 2 канала

Channel layout : L R

Частота : 48,0 КГц

Частота кадров : 31,250 кадров/сек (1536 SPF)

Битовая глубина : 16 бит

Метод сжатия : С потерями

Размер потока : 133 Мбайт (9%)

Выравнивание : Соединение по промежуткам

Продолжительность промежутка : 32 мс. (0,77 видеокадр)

Заголовок : MVO [@[email protected]] MediaBit

Service kind : Complete MainСкриншоты





Релиз от:

Discussion

Comments 0

Post Your Comment

Files in this torrent

FILENAMESIZE
Lost.Girls.and.Love.Hotels.2020.XviD.WEB-DLRip-MediaBit.avi1.4 GB

Alternative Torrents for 'Lost Girls and Love Hotels DLRipMediaBit'.

There are no alternative torrents found.