A Tor Bella Monaca Non Piove Mai (2019) ITA Ac3 5.1 DVDRip H264 [ArMor]

Torrent Details


A Tor Bella Monaca non piove mai (2019) ITA Ac3 5.1 DVDRip H264 <span style=color:#fc9c6d>[ArMor]</span>

NAME
A Tor Bella Monaca non piove mai (2019) ITA Ac3 5.1 DVDRip H264 [ArMor].torrent
CATEGORY
Movies
INFOHASH
5f4a5ed6064bba4f548ff4f6f39329b8e73ad1ee
SIZE
1.2 GB in 2 files
ADDED
Uploaded on 26-09-2020 by our crawler pet called "Spidey".
SWARM
0 seeders & 0 peers
RATING
No votes yet.

Please login to vote for this torrent.


Description















Regista: Marco Bocci

Genere: Drammatico

Anno: 2019

Paese: Italia

Durata: 93 min

Data di uscita: 28 novembre 2019

Distribuzione: Altre Storie Distribuzione e Minerva Pictures







A Tor Bella Monaca Non Piove Mai, esordio alla regia di Marco Bocci, è una storia ambientata nella periferia romana, dove si cresce arrabbiati e il più delle volte in seno al pregiudizio. Tra i vari personaggi di Tor Bella Monaca il film racconta la vita di Mauro (Libero De Rienzo), trentacinquenne alla ricerca di un lavoro che non sfoci nell'illegalità e desideroso di costruirsi un futuro assieme alla donna che ama, Samantha (Antonia Liskova). Sono obiettivi non difficili da perseguire, ma non nella periferia di una grande città, dove un uomo corretto e meticoloso come Mauro rappresenta un'eccezione.



In the difficult Roman neighborhood of Tor Bella Monaca, Mauro, recently abandoned by his girlfriend, is about to discover whether evil is something one is born being, or one becomes.

























General

Unique ID                                : 252199277160599716312415352536421945451 (0xBDBBD0613B5FACEC2C29BE5F065CD06B)

Complete name                            : A Tor Bella Monaca non piove mai (2019) ITA Ac3 5.1 DVDRip H264 [ArMor].mkv

Format                                   : Matroska

Format version                           : Version 4

File size                                : 1.23 GiB

Duration                                 : 1 h 30 min

Overall bit rate                         : 1 937 kb/s

Encoded date                             : UTC 2020-09-23 21:30:39

Writing application                      : HandBrake 1.3.3 2020061300

Writing library                          : Lavf58.29.100

ErrorDetectionType                       : Per level 1



Video

ID                                       : 1

Format                                   : AVC

Format/Info                              : Advanced Video Codec

Format profile                           : [email protected]

Format settings                          : CABAC / 4 Ref Frames

Format settings, CABAC                   : Yes

Format settings, Reference frames        : 4 frames

Codec ID                                 : V_MPEG4/ISO/AVC

Duration                                 : 1 h 30 min

Bit rate                                 : 1 500 kb/s

Width                                    : 720 pixels

Height                                   : 304 pixels

Display aspect ratio                     : 2.35:1

Frame rate mode                          : Constant

Frame rate                               : 25.000 FPS

Color space                              : YUV

Chroma subsampling                       : 4:2:0

Bit depth                                : 8 bits

Scan type                                : Progressive

Bits/(Pixel*Frame)                       : 0.274

Stream size                              : 943 MiB (75%)

Writing library                          : x264 core 157 r2935 545de2f

Encoding settings                        : cabac=1 / ref=2 / deblock=1:0:0 / analyse=0x1:0x111 / me=hex / subme=6 / psy=1 / psy_rd=1.00:0.00 / mixed_ref=1 / me_range=16 / chroma_me=1 / trellis=1 / 8x8dct=0 / cqm=0 / deadzone=21,11 / fast_pskip=1 / chroma_qp_offset=-2 / threads=9 / lookahead_threads=1 / sliced_threads=0 / nr=0 / decimate=1 / interlaced=0 / bluray_compat=0 / constrained_intra=0 / bframes=3 / b_pyramid=2 / b_adapt=1 / b_bias=0 / direct=1 / weightb=1 / open_gop=0 / weightp=1 / keyint=250 / keyint_min=25 / scenecut=40 / intra_refresh=0 / rc_lookahead=30 / rc=abr / mbtree=1 / bitrate=1500 / ratetol=1.0 / qcomp=0.60 / qpmin=0 / qpmax=69 / qpstep=4 / vbv_maxrate=50000 / vbv_bufsize=62500 / nal_hrd=none / filler=0 / ip_ratio=1.40 / aq=1:1.00

Default                                  : Yes

Forced                                   : No

Color range                              : Limited

Color primaries                          : BT.601 PAL

Transfer characteristics                 : BT.709

Matrix coefficients                      : BT.601



Audio

ID                                       : 2

Format                                   : AC-3

Format/Info                              : Audio Coding 3

Commercial name                          : Dolby Digital

Codec ID                                 : A_AC3

Duration                                 : 1 h 30 min

Bit rate mode                            : Constant

Bit rate                                 : 448 kb/s

Channel(s)                               : 6 channels

Channel layout                           : L R C LFE Ls Rs

Sampling rate                            : 48.0 kHz

Frame rate                               : 31.250 FPS (1536 SPF)

Compression mode                         : Lossy

Stream size                              : 291 MiB (23%)

Title                                    : Surround

Language                                 : Italian

Service kind                             : Complete Main

Default                                  : Yes

Forced                                   : No



Menu

00:00:00.080                             : :Chapter 1

00:07:20.720                             : :Chapter 2

00:16:47.600                             : :Chapter 3

00:22:57.680                             : :Chapter 4

00:31:35.120                             : :Chapter 5

00:38:47.120                             : :Chapter 6

00:45:49.040                             : :Chapter 7

00:54:05.360                             : :Chapter 8

01:01:18.800                             : :Chapter 9

01:09:18.320                             : :Chapter 10

01:16:36.560                             : :Chapter 11

01:27:21.680                             : :Chapter 12





Discussion

Comments 0

Post Your Comment

Files in this torrent

FILENAMESIZE
A Tor Bella Monaca non piove mai (2019) ITA Ac3 5.1 DVDRip H264 [ArMor].mkv1.2 GB
nafklo8.jpg123.2 KB

Alternative Torrents for 'Tor Bella Monaca non piove mai DVDRip'.

TORRENT NAMEADDEDSIZESEEDSPEERSHEALTH
9/26/20201.2 GB00