Sword Art Online Alicization War Of Underworld 2

Torrent Details


Sword Art Online Alicization War of Underworld 2

NAME
Sword Art Online Alicization War of Underworld 2.torrent
CATEGORY
Anime
INFOHASH
b4991cd21f9cb065bcfc593ad723fd7e40601c9d
SIZE
6.1 GB in 11 files
ADDED
Uploaded on 28-09-2020 by our crawler pet called "Spidey".
SWARM
0 seeders & 0 peers
RATING
No votes yet.

Please login to vote for this torrent.


Description

Информация о фильме

Название: Мастера Меча Онлайн: Алисизация - Война Андерворлда (Сезон 2)

Оригинальное название: Sword Art Online: Alicization - War of Underworld 2nd Season / ソードアート・オンライン アリシゼーション War of Underworld

Год выхода: 2020

Жанр: Приключения, фантастика, романтика, драма

Режиссер: Оно Манабу

В ролях: Ёсицугу Мацуока, Харука Томацу, Ито Канаэ, Аяна Такэтацу, Миюки Савасиро, Аяхи Такагаки, Рина Хидака, Синъя Такахаси, Хироки Ясумото, Соитиро Хоси



О фильме:

Кирито, Юджио и Алиса. Прошло полгода с того дня, когда два элитных курсанта и один рыцарь единства одолели Первосвященницу Администратор. После битвы Алиса вернулась на родину, в деревню Рулид. Под одной с ней крышей живёт Кирито, потерявший лучшего друга, руку и душу. Алиса самоотверженно ухаживает за ним, но в ней больше не осталось рыцарской решимости. — Скажи, Кирито... Что мне делать? Тем временем неумолимо истекает время до фазы окончательного стресс-теста, который грозит всему Андерворлду ужасным катаклизмом. В преддверии трагедии в глубине Дарк Территори возвращается на престол бог тьмы Вектор. Он встаёт во главе армии тьмы и начинает наступление на мир людей, чтобы пленить некую жрицу света. Командир рыцарей единства Беркули, возглавивший оборону мира людей, решает сразиться с армией Дарк Территори в битве доселе неслыханных масштабов. Но пока что рядом с ним нет ни Алисы, ни двух героев, недавно спасших Андерворлд. Грядёт самая длинная и самая прекрасная битва Sword Art Online. Настало время завершить цикл «Алисизация»!





Страна: Япония

Студия: A-1 Pictures

Продолжительность: 00:23:40

Перевод: Дубляж | StudioBand [Wakanim]

Любительский многоголосый (закадровый) | AniLibria



Файл

Кодек: x265 HEVC

Качество: WEBRip-HEVC 1080p

Видео: x265, 1920x1080, 4331 kbps, 23.976 fps

Звук:

Звук (Rus(int)): AC-3, 192 kbps, 48,0 KHz, 2 ch | [StudioBand]

Звук (Rus(int)): AC-3, 192 kbps, 48,0 KHz, 2 ch | [AniLibria]

Звук (Japanese): AC-3, 192 kbps, 48,0 KHz, 2 ch | [Original]

Субтитры: русские (встроенные полный перевод, ASS)

MediaInfo:Видео

Идентификатор : 1

Формат : HEVC

Формат/Информация : High Efficiency Video Coding

Профиль формата : Main [email protected]@Main

Идентификатор кодека : V_MPEGH/ISO/HEVC

Продолжительность : 23 м. 40 с.

Битрейт : 4 331 Кбит/сек

Ширина : 1 920 пикселей

Высота : 1 080 пикселей

Соотношение сторон : 16:9

Режим частоты кадров : Постоянный

Частота кадров : 23,976 (24000/1001) кадра/сек

Цветовое пространство : YUV

Субдискретизация насыщенности : 4:2:0

Битовая глубина : 10 бит

Бит/(Пиксели*Кадры) : 0.087

Размер потока : 733 Мбайт (88%)

Библиотека кодирования : x265 3.4+2-73ca1d7be377:[Windows][GCC 9.3.1][64 bit] 10bit



Аудио #1

Идентификатор : 2

Формат : AC-3

Формат/Информация : Audio Coding 3

Коммерческое название : Dolby Digital

Идентификатор кодека : A_AC3

Продолжительность : 23 м. 40 с.

Вид битрейта : Постоянный

Битрейт : 192 Кбит/сек

Каналы : 2 канала

Channel layout : L R

Частота : 48,0 КГц

Частота кадров : 31,250 кадров/сек (1536 SPF)

Метод сжатия : С потерями

Размер потока : 32,5 Мбайт (4%)

Заголовок : StudioBand

Язык : Russian

Service kind : Complete Main

Default : Да

Forced : Нет



Аудио #2

Идентификатор : 3

Формат : AC-3

Формат/Информация : Audio Coding 3

Коммерческое название : Dolby Digital

Идентификатор кодека : A_AC3

Продолжительность : 23 м. 40 с.

Вид битрейта : Постоянный

Битрейт : 192 Кбит/сек

Каналы : 2 канала

Channel layout : L R

Частота : 48,0 КГц

Частота кадров : 31,250 кадров/сек (1536 SPF)

Метод сжатия : С потерями

Размер потока : 32,5 Мбайт (4%)

Заголовок : AniLibria

Язык : Russian

Service kind : Complete Main

Default : Нет

Forced : Нет



Аудио #3

Идентификатор : 4

Формат : AC-3

Формат/Информация : Audio Coding 3

Коммерческое название : Dolby Digital

Идентификатор кодека : A_AC3

Продолжительность : 23 м. 40 с.

Вид битрейта : Постоянный

Битрейт : 192 Кбит/сек

Каналы : 2 канала

Channel layout : L R

Частота : 48,0 КГц

Частота кадров : 31,250 кадров/сек (1536 SPF)

Метод сжатия : С потерями

Размер потока : 32,5 Мбайт (4%)

Заголовок : Original

Язык : Japanese

Service kind : Complete Main

Default : Нет

Forced : Нет



Текст #1

Идентификатор : 5

Формат : ASS

Идентификатор кодека : S_TEXT/ASS

Идентификатор кодека/Информация : Advanced Sub Station Alpha

Продолжительность : 21 м. 30 с.

Битрейт : 2 бит/сек

Count of elements : 4

Метод сжатия : Без потерь

Размер потока : 379 байт (0%)

Заголовок : Надписи

Язык : Russian

Default : Да

Forced : Да



Текст #2

Идентификатор : 6

Формат : ASS

Идентификатор кодека : S_TEXT/ASS

Идентификатор кодека/Информация : Advanced Sub Station Alpha

Продолжительность : 23 м. 22 с.

Битрейт : 106 бит/сек

Count of elements : 215

Метод сжатия : Без потерь

Размер потока : 18,3 Кбайт (0%)

Заголовок : Полные субтитры

Язык : Russian

Default : Нет

Forced : Нет

Скриншоты

Discussion

Comments 0

Post Your Comment

Files in this torrent

FILENAMESIZE
Sword Art Online Alicization War of Underworld 2.01.mkv831.2 MB
Sword Art Online Alicization War of Underworld 2.02.mkv473.6 MB
Sword Art Online Alicization War of Underworld 2.03.mkv578.8 MB
Sword Art Online Alicization War of Underworld 2.04.mkv469.2 MB
Sword Art Online Alicization War of Underworld 2.05.mkv591.2 MB
Sword Art Online Alicization War of Underworld 2.06.mkv682.8 MB
Sword Art Online Alicization War of Underworld 2.07.mkv609.8 MB
Sword Art Online Alicization War of Underworld 2.08.mkv813.5 MB
Sword Art Online Alicization War of Underworld 2.09.mkv401.2 MB
Sword Art Online Alicization War of Underworld 2.10.mkv345.4 MB
Sword Art Online Alicization War of Underworld 2.11.mkv399.6 MB

Alternative Torrents for 'Sword Art Online Alicization War of Underworld'.

TORRENT NAMEADDEDSIZESEEDSPEERSHEALTH
9/12/20201.3 GB2390
8/22/20201.3 GB2370
8/15/20201.3 GB2090
8/8/20201.3 GB2010
7/25/20201.3 GB1850
7/18/20201.3 GB1793
7/11/20201.3 GB1771
8/22/2020696 MB1150
8/15/2020696 MB1071
8/8/2020696 MB981
7/11/2020695 MB941
7/18/2020695 MB932
7/25/2020697 MB901
9/5/2020356 MB350
8/15/2020355 MB351