Shameless US (2010) S04 (1080p BDRip X265 10bit EAC3 5.1 - WEM)[TAoE]

Torrent Details

Shameless US (2010) S04 (1080p BDRip x265 10bit EAC3 5.1 - WEM)<span style=color:#fc9c6d>[TAoE]</span>

NAME
Shameless US (2010) S04 (1080p BDRip x265 10bit EAC3 5.1 - WEM)[TAoE].torrent
CATEGORY
Television
INFOHASH
d008a4800997570877daf2686e79715f3a435acd
SIZE
26.9 GB in 12 files
ADDED
Uploaded on 29-09-2020 by our crawler pet called "Spidey".
SWARM
0 seeders & 1 peers
RATING
No votes yet.

Please login to vote for this torrent.


Description







Shameless (2011-) IMDB

Season 4





























Media Information

General

Unique ID                                : 200538482866738280710858091411245091755 (0x96DE4E9203B36A9828CB71E8C86BCBAB)

Complete name                            : Shameless (US) (2010) S04E01 Simple Pleasures (1080p BDRip x265 10bit EAC3 5.1 - WEM)[TAoE].mkv

Format                                   : Matroska

Format version                           : Version 4

File size                                : 2.31 GiB

Duration                                 : 56 min 7 s

Overall bit rate                         : 5 898 kb/s

Writing application                      : Lavf58.29.100

Writing library                          : Lavf58.29.100

ErrorDetectionType                       : Per level 1



Video

ID                                       : 1

Format                                   : HEVC

Format/Info                              : High Efficiency Video Coding

Format profile                           : Main [email protected]@Main

Codec ID                                 : V_MPEGH/ISO/HEVC

Duration                                 : 56 min 6 s

Bit rate                                 : 5 180 kb/s

Width                                    : 1 920 pixels

Height                                   : 1 080 pixels

Display aspect ratio                     : 16:9

Frame rate mode                          : Constant

Frame rate                               : 23.976 (24000/1001) FPS

Color space                              : YUV

Chroma subsampling                       : 4:2:0

Bit depth                                : 10 bits

Bits/(Pixel*Frame)                       : 0.104

Stream size                              : 2.03 GiB (88%)

Title                                    : Encoded by WEM for TAoE using Shinguru V2.1

Writing library                          : x265 3.3+29-1e3dbf09ee4f:[Windows][GCC 9.3.1][64 bit] 10bit

Encoding settings                        : cpuid=1111039 / frame-threads=4 / numa-pools=24 / wpp / no-pmode / no-pme / no-psnr / no-ssim / log-level=2 / input-csp=1 / input-res=1920x1080 / interlace=0 / total-frames=0 / level-idc=0 / high-tier=1 / uhd-bd=0 / ref=4 / no-allow-non-conformance / no-repeat-headers / annexb / no-aud / no-hrd / info / hash=0 / no-temporal-layers / open-gop / min-keyint=23 / keyint=250 / gop-lookahead=0 / bframes=8 / b-adapt=2 / b-pyramid / bframe-bias=0 / rc-lookahead=80 / lookahead-slices=4 / scenecut=40 / hist-scenecut=0 / radl=0 / no-splice / no-intra-refresh / ctu=64 / min-cu-size=8 / no-rect / no-amp / max-tu-size=32 / tu-inter-depth=1 / tu-intra-depth=1 / limit-tu=0 / rdoq-level=2 / dynamic-rd=0.00 / no-ssim-rd / signhide / no-tskip / nr-intra=0 / nr-inter=0 / no-constrained-intra / no-strong-intra-smoothing / max-merge=3 / limit-refs=3 / limit-modes / me=3 / subme=5 / merange=57 / temporal-mvp / no-frame-dup / no-hme / weightp / no-weightb / no-analyze-src-pics / deblock=0:0 / sao / no-sao-non-deblock / rd=4 / selective-sao=4 / no-early-skip / rskip / no-fast-intra / no-tskip-fast / no-cu-lossless / no-b-intra / no-splitrd-skip / rdpenalty=0 / psy-rd=1.30 / psy-rdoq=2.00 / no-rd-refine / no-lossless / cbqpoffs=0 / crqpoffs=0 / rc=crf / crf=19.0 / qcomp=0.60 / qpstep=4 / stats-write=0 / stats-read=0 / ipratio=1.40 / pbratio=1.30 / aq-mode=4 / aq-strength=1.10 / cutree / zone-count=0 / no-strict-cbr / qg-size=32 / no-rc-grain / qpmax=69 / qpmin=0 / no-const-vbv / sar=1 / overscan=0 / videoformat=5 / range=0 / colorprim=2 / transfer=2 / colormatrix=2 / chromaloc=0 / display-window=0 / cll=0,0 / min-luma=0 / max-luma=1023 / log2-max-poc-lsb=8 / vui-timing-info / vui-hrd-info / slices=1 / no-opt-qp-pps / no-opt-ref-list-length-pps / no-multi-pass-opt-rps / scenecut-bias=0.05 / hist-threshold=0.01 / no-opt-cu-delta-qp / no-aq-motion / no-hdr10 / no-hdr10-opt / no-dhdr10-opt / no-idr-recovery-sei / analysis-reuse-level=0 / analysis-save-reuse-level=0 / analysis-load-reuse-level=0 / scale-factor=0 / refine-intra=0 / refine-inter=0 / refine-mv=1 / refine-ctu-distortion=0 / no-limit-sao / ctu-info=0 / no-lowpass-dct / refine-analysis-type=0 / copy-pic=1 / max-ausize-factor=1.0 / no-dynamic-refine / no-single-sei / no-hevc-aq / no-svt / no-field / qp-adaptation-range=1.00 / no-scenecut-aware-qpconformance-window-offsets / right=0 / bottom=0 / decoder-max-rate=0

Default                                  : Yes

Forced                                   : No

Color range                              : Limited



Audio

ID                                       : 2

Format                                   : E-AC-3

Format/Info                              : Enhanced AC-3

Commercial name                          : Dolby Digital Plus

Codec ID                                 : A_EAC3

Duration                                 : 56 min 7 s

Bit rate mode                            : Constant

Bit rate                                 : 448 kb/s

Channel(s)                               : 6 channels

Channel layout                           : L R C LFE Ls Rs

Sampling rate                            : 48.0 kHz

Frame rate                               : 31.250 FPS (1536 SPF)

Bit depth                                : 16 bits

Compression mode                         : Lossy

Stream size                              : 180 MiB (8%)

Writing library                          : Lavc58.54.100 eac3

Language                                 : English

Service kind                             : Complete Main

Default                                  : Yes

Forced                                   : No



Text #1

ID                                       : 3

Format                                   : PGS

Codec ID                                 : S_HDMV/PGS

Codec ID/Info                            : Picture based subtitle format used on BDs/HD-DVDs

Duration                                 : 55 min 59 s

Bit rate                                 : 76.0 kb/s

Count of elements                        : 1537

Stream size                              : 30.5 MiB (1%)

Title                                    : English (SDH)

Language                                 : English

Default                                  : No

Forced                                   : No



Text #2

ID                                       : 4

Format                                   : PGS

Codec ID                                 : S_HDMV/PGS

Codec ID/Info                            : Picture based subtitle format used on BDs/HD-DVDs

Duration                                 : 55 min 59 s

Bit rate                                 : 55.1 kb/s

Count of elements                        : 1332

Stream size                              : 22.0 MiB (1%)

Title                                    : French

Language                                 : French

Default                                  : No

Forced                                   : No



Text #3

ID                                       : 5

Format                                   : PGS

Codec ID                                 : S_HDMV/PGS

Codec ID/Info                            : Picture based subtitle format used on BDs/HD-DVDs

Duration                                 : 56 min 1 s

Bit rate                                 : 64.9 kb/s

Count of elements                        : 1454

Stream size                              : 26.0 MiB (1%)

Title                                    : German (SDH)

Language                                 : German

Default                                  : No

Forced                                   : No



Text #4

ID                                       : 6

Format                                   : PGS

Codec ID                                 : S_HDMV/PGS

Codec ID/Info                            : Picture based subtitle format used on BDs/HD-DVDs

Duration                                 : 55 min 59 s

Bit rate                                 : 72.6 kb/s

Count of elements                        : 1468

Stream size                              : 29.1 MiB (1%)

Title                                    : Spanish (Latin American)

Language                                 : Spanish

Default                                  : No

Forced                                   : No



Menu

00:00:00.000                             : :Chapter 1

00:02:58.053                             : :Chapter 2

00:09:25.732                             : :Chapter 3

00:19:50.481                             : :Chapter 4

00:30:42.257                             : :Chapter 5

00:39:31.327                             : :Chapter 6

00:49:59.205                             : :Chapter 7

00:55:08.972                             : :Chapter 8



Source Information

General

Unique ID                                : 189464927532663402587961649028453787409 (0x8E899E23DB5782FDD6E0738684226711)

Complete name                            : Shameless.US.S04E01.Simple.Pleasures.1080p.DTS-HD.MA.5.1.AVC.REMUX-FraMeSToR.mkv

Format                                   : Matroska

Format version                           : Version 4

File size                                : 6.43 GiB

Duration                                 : 56 min 7 s

Overall bit rate mode                    : Variable

Overall bit rate                         : 16.4 Mb/s

Encoded date                             : UTC 2018-11-29 16:38:07

Writing application                      : mkvmerge v28.2.0 ('The Awakening') 64-bit

Writing library                          : libebml v1.3.6 + libmatroska v1.4.9



Video

ID                                       : 1

Format                                   : AVC

Format/Info                              : Advanced Video Codec

Format profile                           : [email protected]

Format settings                          : CABAC / 2 Ref Frames

Format settings, CABAC                   : Yes

Format settings, Reference frames        : 2 frames

Codec ID                                 : V_MPEG4/ISO/AVC

Duration                                 : 56 min 6 s

Bit rate mode                            : Variable

Bit rate                                 : 13.9 Mb/s

Width                                    : 1 920 pixels

Height                                   : 1 080 pixels

Display aspect ratio                     : 16:9

Frame rate mode                          : Constant

Frame rate                               : 23.976 (24000/1001) FPS

Color space                              : YUV

Chroma subsampling                       : 4:2:0

Bit depth                                : 8 bits

Scan type                                : Progressive

Bits/(Pixel*Frame)                       : 0.281

Stream size                              : 5.47 GiB (85%)

Default                                  : Yes

Forced                                   : No



Audio

ID                                       : 2

Format                                   : DTS XLL

Format/Info                              : Digital Theater Systems

Commercial name                          : DTS-HD Master Audio

Codec ID                                 : A_DTS

Duration                                 : 56 min 7 s

Bit rate mode                            : Variable

Bit rate                                 : 2 188 kb/s

Channel(s)                               : 6 channels

Channel layout                           : C L R Ls Rs LFE

Sampling rate                            : 48.0 kHz

Frame rate                               : 93.750 FPS (512 SPF)

Bit depth                                : 16 bits

Compression mode                         : Lossless

Stream size                              : 878 MiB (13%)

Language                                 : English

Default                                  : Yes

Forced                                   : No



Text #1

ID                                       : 3

Format                                   : PGS

Codec ID                                 : S_HDMV/PGS

Codec ID/Info                            : Picture based subtitle format used on BDs/HD-DVDs

Duration                                 : 55 min 59 s

Bit rate                                 : 76.0 kb/s

Count of elements                        : 1537

Stream size                              : 30.5 MiB (0%)

Title                                    : English (SDH)

Language                                 : English

Default                                  : No

Forced                                   : No



Text #2

ID                                       : 4

Format                                   : PGS

Codec ID                                 : S_HDMV/PGS

Codec ID/Info                            : Picture based subtitle format used on BDs/HD-DVDs

Duration                                 : 55 min 59 s

Bit rate                                 : 55.1 kb/s

Count of elements                        : 1332

Stream size                              : 22.0 MiB (0%)

Title                                    : French

Language                                 : French

Default                                  : No

Forced                                   : No



Text #3

ID                                       : 5

Format                                   : PGS

Codec ID                                 : S_HDMV/PGS

Codec ID/Info                            : Picture based subtitle format used on BDs/HD-DVDs

Duration                                 : 56 min 1 s

Bit rate                                 : 64.9 kb/s

Count of elements                        : 1454

Stream size                              : 26.0 MiB (0%)

Title                                    : German (SDH)

Language                                 : German

Default                                  : No

Forced                                   : No



Text #4

ID                                       : 6

Format                                   : PGS

Codec ID                                 : S_HDMV/PGS

Codec ID/Info                            : Picture based subtitle format used on BDs/HD-DVDs

Duration                                 : 55 min 59 s

Bit rate                                 : 72.6 kb/s

Count of elements                        : 1468

Stream size                              : 29.1 MiB (0%)

Title                                    : Spanish (Latin American)

Language                                 : Spanish

Default                                  : No

Forced                                   : No



Menu

00:00:00.000                             : :Chapter 1

00:02:58.053                             : :Chapter 2

00:09:25.732                             : :Chapter 3

00:19:50.481                             : :Chapter 4

00:30:42.257                             : :Chapter 5

00:39:31.327                             : :Chapter 6

00:49:59.205                             : :Chapter 7

00:55:08.972                             : :Chapter 8

Discussion

Comments 0

Post Your Comment

Files in this torrent

FILENAMESIZE
Shameless (US) (2010) S04E01 Simple Pleasures (1080p BDRip x265 10bit EAC3 5.1 - WEM)[TAoE].mkv2.3 GB
Shameless (US) (2010) S04E02 My Oldest Daughter (1080p BDRip x265 10bit EAC3 5.1 - WEM)[TAoE].mkv2 GB
Shameless (US) (2010) S04E03 Like Father, Like Daughter (1080p BDRip x265 10bit EAC3 5.1 - WEM)[TAoE].mkv2.5 GB
Shameless (US) (2010) S04E04 Strangers on a Train (1080p BDRip x265 10bit EAC3 5.1 - WEM)[TAoE].mkv2.1 GB
Shameless (US) (2010) S04E05 There's the Rub (1080p BDRip x265 10bit EAC3 5.1 - WEM)[TAoE].mkv2.1 GB
Shameless (US) (2010) S04E06 Iron City (1080p BDRip x265 10bit EAC3 5.1 - WEM)[TAoE].mkv2 GB
Shameless (US) (2010) S04E07 A Jailbird, Invalid, Martyr, Cutter, Retard, and Parasitic Twin (1080p BDRip x265 10bit EAC3 5.1 - WEM)[TAoE].mkv2.3 GB
Shameless (US) (2010) S04E08 Hope Springs Paternal (1080p BDRip x265 10bit EAC3 5.1 - WEM)[TAoE].mkv2.3 GB
Shameless (US) (2010) S04E09 The Legend of Bonnie and Carl (1080p BDRip x265 10bit EAC3 5.1 - WEM)[TAoE].mkv2.4 GB
Shameless (US) (2010) S04E10 Liver, I Hardly Know Her (1080p BDRip x265 10bit EAC3 5.1 - WEM)[TAoE].mkv2.3 GB
Shameless (US) (2010) S04E11 Emily (1080p BDRip x265 10bit EAC3 5.1 - WEM)[TAoE].mkv2.3 GB
Shameless (US) (2010) S04E12 Lazarus (1080p BDRip x265 10bit EAC3 5.1 - WEM)[TAoE].mkv2.4 GB

Alternative Torrents for 'Shameless US bit EAC WEM'.

There are no alternative torrents found.