Любимец женщин (Roger Dodger) 2002 BDRip 1080p

Torrent Details

Любимец женщин (Roger Dodger) 2002 BDRip 1080p

NAME
Любимец женщин (Roger Dodger) 2002 BDRip 1080p.torrent
CATEGORY
Movies
INFOHASH
cbe2c574e951d94bc5721e184d78589296713ec3
SIZE
12.2 GB in 0 files
ADDED
Uploaded on 02-10-2020 by our crawler pet called "Spidey".
SWARM
0 seeders & 0 peers
RATING
No votes yet.

Please login to vote for this torrent.


Description

Название: Любимец женщин

Оригинальное название: Roger Dodger

Год выхода: 2002

Страна: США

Студия: Holedigger Films, Roger Dodger LLC

Продолжительность: 01:45:36

Жанр: драма, комедия, ...



Режиссер: Дилан Кидд

В ролях: Кэмпбелл Скотт, Джесси Айзенберг, Изабелла Росселлини, Элизабет Беркли, Дженнифер Билз, Мина Бэди, Бен Шенкман, Крис Стэк, Морена Баккарин, Лиза Эмери, ...



Перевод:

Профессиональный (двуголосый, закадровый) R5

Профессиональный (двуголосый, закадровый)

Субтитры



О фильме: Эта «черная» комедия рассказывает историю специалиста по рекламе по имени Роджер, меняющего женщин, как перчатки, который дает советы, как добиться благосклонности от противоположного пола, своему несовершеннолетнему племяннику, который никак не расстанется со своей девственностью.

Фильм предоставляет зрителю возможность провести 24 часа, наблюдая за их диковатыми приключениями в Нью-Йорке…







Кодек: x264

Качество: BDRip 1080p

Видео: 1920x1080 , 14000 kbps, 23,976 fps

Аудио #1: AC-3, 6 ch, 640 kbps (Rus) - DVO R5

Аудио #2: AC-3, 6 ch, 384 kbps (Rus) - DVO

Аудио #3: DTS, 6 ch, 1509 kbps (Eng)

Субтитры: Русские, Английские



Дополнительная информацияЗа исходник спасибо - порошков

MediaInfo

x264 [info]: frame I:676 Avg QP:15.94 size:130521

x264 [info]: frame P:31831 Avg QP:17.78 size:103172

x264 [info]: frame B:119393 Avg QP:19.80 size: 64547

x264 [info]: consecutive B-frames: 1.1% 1.8% 8.6% 17.4% 17.6% 48.8% 1.1% 0.6% 0.5% 0.7% 0.5% 0.7% 0.7%



Общее

Уникальный идентификатор : 219564244571636228048338311492993423186 (0xA52E890BA194D62CA566809EC88E1752)

Полное имя : Любимец женщин (Roger Dodger) 2002 BDRip 1080p.mkv

Формат : Matroska

Версия формата : Version 2

Размер файла : 12,2 Гбайт

Продолжительность : 1 ч. 45 м.

Общий поток : 16,5 Мбит/сек

Дата кодирования : UTC 2016-05-18 18:10:56

Программа кодирования : mkvmerge v4.0.0 ('The Stars were mine') сборка от Jun 6 2010 16:18:42

Библиотека кодирования : libebml v1.0.0 + libmatroska v1.0.0



Видео

Идентификатор : 1

Формат : AVC

Формат/Информация : Advanced Video Codec

Профиль формата : [email protected]

Параметр CABAC формата : Да

Параметр ReFrames формата : 4 кадра

Идентификатор кодека : V_MPEG4/ISO/AVC

Продолжительность : 1 ч. 45 м.

Битрейт : 14,0 Мбит/сек

Ширина : 1920 пикселей

Высота : 1080 пикселей

Соотношение сторон : 16:9

Режим частоты кадров : Постоянный

Частота кадров : 23,976 кадра/сек

Цветовое пространство : YUV

Субдискретизация насыщенности : 4:2:0

Битовая глубина : 8 бит

Тип развёртки : Прогрессивная

Бит/(Пиксели*Кадры) : 0.282

Размер потока : 10,1 Гбайт (83%)

Библиотека кодирования : x264 core 146 r2538 121396c

Настройки программы : cabac=1 / ref=4 / deblock=1:-3:-3 / analyse=0x3:0x133 / me=umh / subme=11 / psy=1 / psy_rd=1.10:0.16 / mixed_ref=1 / me_range=32 / chroma_me=1 / trellis=2 / 8x8dct=1 / cqm=0 / deadzone=21,11 / fast_pskip=0 / chroma_qp_offset=-3 / threads=12 / lookahead_threads=2 / sliced_threads=0 / nr=0 / decimate=0 / interlaced=0 / bluray_compat=0 / constrained_intra=0 / bframes=12 / b_pyramid=2 / b_adapt=2 / b_bias=0 / direct=3 / weightb=1 / open_gop=0 / weightp=2 / keyint=240 / keyint_min=23 / scenecut=40 / intra_refresh=0 / rc_lookahead=60 / rc=2pass / mbtree=0 / bitrate=14000 / ratetol=1.0 / qcomp=0.60 / qpmin=0 / qpmax=69 / qpstep=4 / cplxblur=20.0 / qblur=0.5 / vbv_maxrate=50000 / vbv_bufsize=62500 / nal_hrd=none / filler=0 / ip_ratio=1.40 / pb_ratio=1.30 / aq=1:0.90

Язык : English

Default : Нет

Forced : Нет



Аудио #1

Идентификатор : 2

Формат : AC-3

Формат/Информация : Audio Coding 3

Расширение режима : CM (complete main)

Параметр Endianness формата : Big

Идентификатор кодека : A_AC3

Продолжительность : 1 ч. 45 м.

Вид битрейта : Постоянный

Битрейт : 640 Кбит/сек

Каналы : 6 каналов

Расположение каналов : Front: L C R, Side: L R, LFE

Частота : 48,0 КГц

Метод сжатия : С потерями

Размер потока : 483 Мбайт (4%)

Заголовок : DVO R5

Язык : Russian

Default : Нет

Forced : Нет



Аудио #2

Идентификатор : 3

Формат : AC-3

Формат/Информация : Audio Coding 3

Расширение режима : CM (complete main)

Параметр Endianness формата : Big

Идентификатор кодека : A_AC3

Продолжительность : 1 ч. 45 м.

Вид битрейта : Постоянный

Битрейт : 384 Кбит/сек

Каналы : 6 каналов

Расположение каналов : Front: L C R, Side: L R, LFE

Частота : 48,0 КГц

Метод сжатия : С потерями

Размер потока : 290 Мбайт (2%)

Заголовок : DVO

Язык : Russian

Default : Нет

Forced : Нет



Аудио #3

Идентификатор : 4

Формат : DTS

Формат/Информация : Digital Theater Systems

Режим : 16

Параметр Endianness формата : Big

Идентификатор кодека : A_DTS

Продолжительность : 1 ч. 45 м.

Вид битрейта : Постоянный

Битрейт : 1509 Кбит/сек

Каналы : 6 каналов

Расположение каналов : Front: L C R, Side: L R, LFE

Частота : 48,0 КГц

Битовая глубина : 16 бит

Метод сжатия : С потерями

Размер потока : 1,11 Гбайт (9%)

Язык : English

Default : Нет

Forced : Нет



Текст #1

Идентификатор : 5

Формат : UTF-8

Идентификатор кодека : S_TEXT/UTF8

Идентификатор кодека/Информация : UTF-8 Plain Text

Язык : Russian

Default : Нет

Forced : Нет



Текст #2

Идентификатор : 6

Формат : UTF-8

Идентификатор кодека : S_TEXT/UTF8

Идентификатор кодека/Информация : UTF-8 Plain Text

Язык : English

Default : Нет

Forced : Нет





Discussion

Comments 0

Post Your Comment

Torrent Files (Unavailable)

Please check back later to get a list of all files included in this torrent.

Alternative Torrents for 'Любимец женщин Roger Dodger'.

TORRENT NAMEADDEDSIZESEEDSPEERSHEALTH
10/2/202012.2 GB00