The Boondock Saints 2 All Saints Day 2009 DIRECTORS CUT BRRip XviD B4ND1T69

Torrent Details


The Boondock Saints 2 All Saints Day 2009 DIRECTORS CUT BRRip XviD<span style=color:#fc9c6d> B4ND1T69</span>

NAME
The Boondock Saints 2 All Saints Day 2009 DIRECTORS CUT BRRip XviD B4ND1T69.torrent
CATEGORY
Movies
INFOHASH
c41ba650bfd15fb2e4b14ef639ccc463d4bff2c9
SIZE
1.2 GB in 7 files
ADDED
Uploaded on 02-10-2020 by our crawler pet called "Spidey".
SWARM
2 seeders & 1 peers
RATING
No votes yet.

Please login to vote for this torrent.


Description

The.Boondock.Saints.2.All.Saints.Day.2009.DIRECTORS.CUT.BRRip.XviD.B4ND1T69







Director: Troy Duffy

Writers: Troy Duffy (screenplay), Troy Duffy (story)

Stars: Sean Patrick Flanery, Norman Reedus, Billy Connolly



Plot/Story:

The MacManus brothers are living a quiet life in Ireland with their father, but when they learn that their beloved priest has been killed by mob forces, they go back to Boston to bring justice to those responsible and avenge the priest.



General

Complete name               : The.Boondock.Saints.2.All.Saints.Day.2009.DIRECTORS.CUT.BRRip.XviD.B4ND1T69.avi

Format                      : AVI

Format/Info                 : Audio Video Interleave

File size                   : 1.23 GiB

Duration                    : 2 h 18 min

Overall bit rate            : 1 281 kb/s

Subtitles                   : Yes...Hardcoded for non-English parts + file included(HI)



Video

ID                          : 0

Format                      : MPEG-4 Visual

Format profile              : Advanced [email protected]

Format settings, BVOP       : 2

Format settings, QPel       : No

Format settings, GMC        : No warppoints

Format settings, Matrix     : Default (H.263)

Codec ID                    : XVID

Codec ID/Hint               : XviD

Duration                    : 2 h 18 min

Bit rate                    : 1 140 kb/s

Width                       : 720 pixels

Height                      : 304 pixels

Display aspect ratio        : 2.35:1

Frame rate                  : 23.976 (24000/1001) FPS

Color space                 : YUV

Chroma subsampling          : 4:2:0

Bit depth                   : 8 bits

Scan type                   : Progressive

Compression mode            : Lossy

Bits/(Pixel*Frame)          : 0.217

Stream size                 : 1.10 GiB (89%)

Writing library             : XviD 64



Audio

ID                          : 1

Format                      : MPEG Audio

Format version              : Version 1

Format profile              : Layer 3

Codec ID                    : 55

Codec ID/Hint               : MP3

Duration                    : 2 h 18 min

Bit rate mode               : Constant

Bit rate                    : 128 kb/s

Channel(s)                  : 2 channels

Sampling rate               : 48.0 kHz

Compression mode            : Lossy

Stream size                 : 126 MiB (10%)

Alignment                   : Aligned on interleaves

Interleave, duration        : 24  ms (0.58 video frame)



Screenshots:



















Please Seed For As Long As Possible

Or At Least 1:1 Ratio...Thanks

Enjoy Peeps

Discussion

Comments 0

Post Your Comment

Files in this torrent

FILENAMESIZE
Downloaded from 1337x.txt61 B
Downloaded from ETTV.txt55 B
Downloaded from newkatcr.co.txt139 B
Downloaded from ProStyleX.txt54 B
The.Boondock.Saints.2.All.Saints.Day.2009.DIRECTORS.CUT.BRRip.XviD.B4ND1T69.avi1.2 GB
The.Boondock.Saints.2.All.Saints.Day.2009.DIRECTORS.CUT.BRRip.XviD.B4ND1T69.srt149.8 KB
Uploaders.Beware!!!.txt167 B

Alternative Torrents for 'Boondock Saints All Saints Day DIRECTORS CUT'.

TORRENT NAMEADDEDSIZESEEDSPEERSHEALTH
10/2/20201.2 GB21
11/6/20209.8 GB00
5/8/202011.7 GB00