The Boys S02E08 WEBRip X264-ION10

Torrent Details

The Boys S02E08 WEBRip x264<span style=color:#fc9c6d>-ION10</span>
The Boys S02E08 WEBRip x264<span style=color:#fc9c6d>-ION10</span>

NAME
The Boys S02E08 WEBRip x264-ION10.torrent
CATEGORY
Television
INFOHASH
7fad6e80612c51d0f77490136d8916efb91f8d16
SIZE
647 MB in 33 files
ADDED
Uploaded on 09-10-2020 by our crawler pet called "Spidey".
SWARM
469 seeders & 51 peers
RATING
No votes yet.

Please login to vote for this torrent.


Description

Video
ID : 1
Format : AVC
Format/Info : Advanced Video Codec
Format profile : [email protected]
Format settings : CABAC / 5 Ref Frames
Format settings, CABAC : Yes
Format settings, Reference frames : 5 frames
Codec ID : avc1
Codec ID/Info : Advanced Video Coding
Duration : 1 h 7 min
Bit rate : 1 100 kb/s
Width : 720 pixels
Height : 300 pixels
Display aspect ratio : 2.40:1
Frame rate mode : Constant
Frame rate : 23.976 (24000/1001) FPS
Color space : YUV
Chroma subsampling : 4:2:0
Bit depth : 8 bits
Scan type : Progressive
Bits/(Pixel*Frame) : 0.212
Stream size : 520 MiB (81%)
Title : RARBG - The.Boys.S02E08.WEBRip.x264-ION10
Writing library : x264 core 152 r2851M ba24899
Encoding settings : cabac=1 / ref=5 / deblock=1:-1:-1 / analyse=0x3:0x113 / me=umh / subme=9 / psy=1 / psy_rd=1.00:0.15 / mixed_ref=1 / me_range=16 / chroma_me=1 / trellis=2 / 8x8dct=1 / cqm=0 / deadzone=21,11 / fast_pskip=1 / chroma_qp_offset=-3 / threads=9 / lookahead_threads=1 / sliced_threads=0 / nr=0 / decimate=1 / interlaced=0 / bluray_compat=0 / constrained_intra=0 / bframes=3 / b_pyramid=2 / b_adapt=2 / b_bias=0 / direct=3 / weightb=1 / open_gop=0 / weightp=2 / keyint=250 / keyint_min=23 / scenecut=40 / intra_refresh=0 / rc_lookahead=50 / rc=abr / mbtree=1 / bitrate=1100 / ratetol=1.0 / qcomp=0.60 / qpmin=0 / qpmax=69 / qpstep=4 / ip_ratio=1.40 / aq=1:1.00
Encoded date : UTC 2020-10-09 00:27:53
Tagged date : UTC 2020-10-09 00:27:53
Codec configuration box : avcC

Audio
ID : 2
Format : AAC LC
Format/Info : Advanced Audio Codec Low Complexity
Codec ID : mp4a-40-2
Duration : 1 h 7 min
Bit rate mode : Constant
Bit rate : 256 kb/s
Channel(s) : 2 channels
Channel layout : L R
Sampling rate : 48.0 kHz
Frame rate : 46.875 FPS (1024 SPF)
Compression mode : Lossy
Stream size : 123 MiB (19%)
Title : RARBG - The.Boys.S02E08.WEBRip.x264-ION10
Language : English
Default : Yes
Alternate group : 1
Encoded date : UTC 2020-10-09 00:27:53
Tagged date : UTC 2020-10-09 00:27:53

Discussion

Comments 0

Post Your Comment

Files in this torrent

FILENAMESIZE
RARBG.txt30 B
RARBG_DO_NOT_MIRROR.exe99 B
Subs/10_fil.srt56.9 KB
Subs/11_French.srt59.1 KB
Subs/12_Hebrew.srt73.5 KB
Subs/13_hin.srt103.6 KB
Subs/14_Indonesian.srt57.2 KB
Subs/15_Italian.srt58.6 KB
Subs/16_Japanese.srt55.7 KB
Subs/17_Korean.srt60.3 KB
Subs/18_may.srt58.9 KB
Subs/19_nor.srt57.6 KB
Subs/20_Dutch.srt56.9 KB
Subs/21_Polish.srt57.4 KB
Subs/22_Portuguese.srt57.7 KB
Subs/23_Portuguese.srt56 KB
Subs/24_Russian.srt79.7 KB
Subs/25_Swedish.srt57.8 KB
Subs/26_tam.srt99.4 KB
Subs/27_tel.srt102.7 KB
Subs/28_Thai.srt97.3 KB
Subs/29_Turkish.srt57 KB
Subs/2_English.srt75.6 KB
Subs/30_Chinese.srt56.6 KB
Subs/31_Chinese.srt55.3 KB
Subs/3_Arabic.srt74.3 KB
Subs/4_Danish.srt54.5 KB
Subs/5_German.srt54.9 KB
Subs/6_English.srt75.6 KB
Subs/7_Spanish.srt58.2 KB
Subs/8_Spanish.srt57.3 KB
Subs/9_Finnish.srt56.9 KB
The.Boys.S02E08.WEBRip.x264-ION10.mp4645.5 MB

Alternative Torrents for 'Boys'.

TORRENT NAMEADDEDSIZESEEDSPEERSHEALTH
10/9/2020320 MB2126526
10/9/20202.7 GB1102690
10/10/20207.7 GB794728
10/9/20204 GB70561
10/9/20201.7 GB51134
10/9/2020647 MB46951
10/9/2020320 MB33942
10/9/20204 GB33080
10/9/20201.1 GB28530
10/9/20201.7 GB2689
10/10/202031.5 GB251137
10/9/2020401 MB23828
10/9/20204 GB18268
10/10/20202 GB16638
10/10/20202 GB15612