Stargirl (2020) Season 1 S01 (1080p BluRay X265 HEVC 10bit AAC 5.1 Vyndros)

Torrent Details

Stargirl (2020) Season 1 S01 (1080p BluRay x265 HEVC 10bit AAC 5.1 Vyndros)
Stargirl (2020) Season 1 S01 (1080p BluRay x265 HEVC 10bit AAC 5.1 Vyndros)

NAME
Stargirl (2020) Season 1 S01 (1080p BluRay x265 HEVC 10bit AAC 5.1 Vyndros).torrent
CATEGORY
Television
INFOHASH
2f5f04df3a7d9159bc5f06e66e0c6d41284f0c86
SIZE
12.8 GB in 13 files
ADDED
Uploaded on 10-10-2020 by our crawler pet called "Spidey".
SWARM
2 seeders & 1 peers
RATING
No votes yet.

Please login to vote for this torrent.


Description





























Media Information



General

Format                                   : Matroska

Format version                           : Version 4 / Version 2

File size                                : 924 MiB

Duration                                 : 43 min 50 s

Overall bit rate                         : 2 946 kb/s

Encoded date                             : UTC 2020-10-06 06:09:27

Writing application                      : mkvmerge v20.0.0 ('I Am The Sun') 64-bit

Writing library                          : libebml v1.3.5 + libmatroska v1.4.8

Writing frontend                         : StaxRip v1.7.0.6



Video

ID                                       : 1

Format                                   : HEVC

Format/Info                              : High Efficiency Video Coding

Format profile                           : Main [email protected]@Main

Codec ID                                 : V_MPEGH/ISO/HEVC

Duration                                 : 43 min 50 s

Bit rate                                 : 2 472 kb/s

Width                                    : 1 920 pixels

Height                                   : 872 pixels

Display aspect ratio                     : 2.2:1

Frame rate mode                          : Constant

Frame rate                               : 23.976 (24000/1001) FPS

Color space                              : YUV

Chroma subsampling                       : 4:2:0

Bit depth                                : 10 bits

Bits/(Pixel*Frame)                       : 0.062

Stream size                              : 775 MiB (84%)

Writing library                          : x265 3.4+1-7b120308dc64:[Windows][MSVC 1926][64 bit] 10bit

Encoding settings                        : cpuid=1111039 / frame-threads=2 / numa-pools=4 / wpp / no-pmode / no-pme / no-psnr / ssim / log-level=2 / input-csp=1 / input-res=1920x872 / interlace=0 / total-frames=63079 / level-idc=0 / high-tier=1 / uhd-bd=0 / ref=3 / no-allow-non-conformance / no-repeat-headers / annexb / no-aud / no-hrd / info / hash=0 / no-temporal-layers / open-gop / min-keyint=23 / keyint=250 / gop-lookahead=0 / bframes=8 / b-adapt=2 / b-pyramid / bframe-bias=0 / rc-lookahead=80 / lookahead-slices=5 / scenecut=40 / hist-scenecut=0 / radl=0 / no-splice / no-intra-refresh / ctu=64 / min-cu-size=8 / no-rect / no-amp / max-tu-size=32 / tu-inter-depth=1 / tu-intra-depth=1 / limit-tu=0 / rdoq-level=0 / dynamic-rd=0.00 / no-ssim-rd / signhide / no-tskip / nr-intra=0 / nr-inter=0 / no-constrained-intra / no-strong-intra-smoothing / max-merge=5 / limit-refs=1 / no-limit-modes / me=3 / subme=5 / merange=57 / temporal-mvp / no-frame-dup / no-hme / weightp / no-weightb / no-analyze-src-pics / deblock=0:0 / sao / no-sao-non-deblock / rd=3 / selective-sao=4 / early-skip / no-rskip / no-fast-intra / no-tskip-fast / no-cu-lossless / b-intra / no-splitrd-skip / rdpenalty=0 / psy-rd=2.00 / psy-rdoq=0.00 / no-rd-refine / no-lossless / cbqpoffs=0 / crqpoffs=0 / rc=crf / crf=19.0 / qcomp=0.60 / qpstep=4 / stats-write=0 / stats-read=0 / ipratio=1.40 / pbratio=1.30 / aq-mode=3 / aq-strength=1.00 / cutree / zone-count=0 / no-strict-cbr / qg-size=32 / no-rc-grain / qpmax=69 / qpmin=0 / no-const-vbv / sar=0 / overscan=0 / videoformat=5 / range=0 / colorprim=2 / transfer=2 / colormatrix=2 / chromaloc=0 / display-window=0 / cll=0,0 / min-luma=0 / max-luma=1023 / log2-max-poc-lsb=8 / vui-timing-info / vui-hrd-info / slices=1 / no-opt-qp-pps / no-opt-ref-list-length-pps / no-multi-pass-opt-rps / scenecut-bias=0.05 / hist-threshold=0.01 / no-opt-cu-delta-qp / no-aq-motion / no-hdr10 / no-hdr10-opt / no-dhdr10-opt / no-idr-recovery-sei / analysis-reuse-level=0 / analysis-save-reuse-level=0 / analysis-load-reuse-level=0 / scale-factor=0 / refine-intra=0 / refine-inter=0 / refine-mv=1 / refine-ctu-distortion=0 / no-limit-sao / ctu-info=0 / no-lowpass-dct / refine-analysis-type=0 / copy-pic=1 / max-ausize-factor=1.0 / no-dynamic-refine / no-single-sei / no-hevc-aq / no-svt / no-field / qp-adaptation-range=1.00 / no-scenecut-aware-qpconformance-window-offsets / right=0 / bottom=0 / decoder-max-rate=0

Default                                  : Yes

Forced                                   : No



Audio

ID                                       : 2

Format                                   : AAC

Format/Info                              : Advanced Audio Codec

Format profile                           : LC

Codec ID                                 : A_AAC

Duration                                 : 43 min 50 s

Bit rate                                 : 461 kb/s

Channel(s)                               : 6 channels

Channel positions                        : Front: L C R, Side: L R, LFE

Sampling rate                            : 48.0 kHz

Frame rate                               : 46.875 FPS (1024 spf)

Compression mode                         : Lossy

Delay relative to video                  : 20 ms

Stream size                              : 145 MiB (16%)

Language                                 : English

Default                                  : Yes

Forced                                   : No



Subtitle #1

ID                                       : 3

Format                                   : PGS

Muxing mode                              : zlib

Codec ID                                 : S_HDMV/PGS

Codec ID/Info                            : Picture based subtitle format used on BDs/HD-DVDs

Duration                                 : 42 min 34 s

Bit rate                                 : 31.5 kb/s

Count of elements                        : 1170

Stream size                              : 9.60 MiB (1%)

Language                                 : English

Default                                  : No

Forced                                   : No



Subtitle #2

ID                                       : 4

Format                                   : UTF-8

Codec ID                                 : S_TEXT/UTF8

Codec ID/Info                            : UTF-8 Plain Text

Duration                                 : 42 min 18 s

Bit rate                                 : 46 b/s

Count of elements                        : 587

Stream size                              : 14.4 KiB (0%)

Language                                 : English

Default                                  : No

Forced                                   : No



Subtitle #3

ID                                       : 5

Format                                   : UTF-8

Codec ID                                 : S_TEXT/UTF8

Codec ID/Info                            : UTF-8 Plain Text

Duration                                 : 42 min 32 s

Bit rate                                 : 48 b/s

Count of elements                        : 611

Stream size                              : 15.2 KiB (0%)

Language                                 : English

Default                                  : No

Forced                                   : No



Source Information

BluRay Remux

Discussion

Comments 0

Post Your Comment

Files in this torrent

FILENAMESIZE
Stargirl.S01E01.Pilot.1080p.10bit.BluRay.AAC5.1.HEVC-Vyndros.mkv1.3 GB
Stargirl.S01E02.S.T.R.I.P.E.1080p.10bit.BluRay.AAC5.1.HEVC-Vyndros.mkv1009.6 MB
Stargirl.S01E03.Icicle.1080p.10bit.BluRay.AAC5.1.HEVC-Vyndros.mkv1.1 GB
Stargirl.S01E04.Wildcat.1080p.10bit.BluRay.AAC5.1.HEVC-Vyndros.mkv1 GB
Stargirl.S01E05.Hourman.And.Dr.Mid-Nite.1080p.10bit.BluRay.AAC5.1.HEVC-Vyndros.mkv1.2 GB
Stargirl.S01E06.The.Justice.Society.1080p.10bit.BluRay.AAC5.1.HEVC-Vyndros.mkv1.1 GB
Stargirl.S01E07.Shiv.(1).1080p.10bit.BluRay.AAC5.1.HEVC-Vyndros.mkv1 GB
Stargirl.S01E08.Shiv.(2).1080p.10bit.BluRay.AAC5.1.HEVC-Vyndros.mkv856.3 MB
Stargirl.S01E09.Brainwave.1080p.10bit.BluRay.AAC5.1.HEVC-Vyndros.mkv855 MB
Stargirl.S01E10.Brainwave.Jr.1080p.10bit.BluRay.AAC5.1.HEVC-Vyndros.mkv834.7 MB
Stargirl.S01E11.Shining.Knight.1080p.10bit.BluRay.AAC5.1.HEVC-Vyndros.mkv923.8 MB
Stargirl.S01E12.Stars.&.S.T.R.I.P.E.(1).1080p.10bit.BluRay.AAC5.1.HEVC-Vyndros.mkv858.5 MB
Stargirl.S01E13.Stars.&.S.T.R.I.P.E.(2).1080p.10bit.BluRay.AAC5.1.HEVC-Vyndros.mkv1019.1 MB

Alternative Torrents for 'Stargirl Season BluRay HEVC bit AAC Vyndros'.

TORRENT NAMEADDEDSIZESEEDSPEERSHEALTH
7/21/202027.6 GB84802119
11/6/2020797 MB1853660
11/8/20201.7 GB1096123
11/25/2020936 MB891281
11/24/20202.2 GB878103
12/3/2020933 MB866338
11/24/20201.1 GB845118
Yesterday305 MB812276
10/1/20201.6 GB80059
11/25/2020798 MB774285
11/25/20202.6 GB761157
11/8/2020864 MB75684
12/3/20201.9 GB748281
11/25/20201.9 GB718215
Yesterday1.3 GB7052210