Official Secrets-Segreto Di Stato (2019) ITA-ENG Ac3 5.1 BDRip 1080p H264 [ArMor]

Torrent Details


Official Secrets-Segreto di stato (2019) ITA-ENG Ac3 5.1 BDRip 1080p H264 <span style=color:#fc9c6d>[ArMor]</span>

NAME
Official Secrets-Segreto di stato (2019) ITA-ENG Ac3 5.1 BDRip 1080p H264 [ArMor].torrent
CATEGORY
Movies
INFOHASH
6ed66b8238dbb3150b5ed4688cd4f095bf45b9fa
SIZE
3.8 GB in 4 files
ADDED
Uploaded on 11-10-2020 by our crawler pet called "Spidey".
SWARM
1 seeders & 0 peers
RATING
No votes yet.

Please login to vote for this torrent.


Description











Regista: Gavin Hood

Genere: Biografico, Drammatico

Anno: 2019

Paese: USA

Data di uscita: N.D.

Distribuzione: Videa







Official Secrets, film diretto da Gavin Hood, è basato sulla vera storia di Katharine Gun (Keira Knightley), informatrice inglese che fece trapelare alcune informazioni alla stampa riguardo una rete di spionaggio illegale architettata da USA e Gran Bretagna per legittimare la successiva guerra in Iraq.



The true story of a British whistleblower who leaked information to the press about an illegal NSA spy operation designed to push the UN Security Council into sanctioning the 2003 invasion of Iraq.

























General

Unique ID                                : 46123456836520806105821669836383058684 (0x22B30DFE9778699573435A8C1C07FAFC)

Complete name                            : Official Secrets-Segreto di stato (2019) ITA-ENG Ac3 5.1 BDRip 1080p H264 [ArMor].mkv

Format                                   : Matroska

Format version                           : Version 4

File size                                : 3.80 GiB

Duration                                 : 1 h 51 min

Overall bit rate                         : 4 868 kb/s

Encoded date                             : UTC 2020-10-10 19:14:36

Writing application                      : Lavf58.54.100

Writing library                          : Lavf58.54.100

ErrorDetectionType                       : Per level 1



Video

ID                                       : 1

Format                                   : AVC

Format/Info                              : Advanced Video Codec

Format profile                           : [email protected]

Format settings                          : CABAC / 2 Ref Frames

Format settings, CABAC                   : Yes

Format settings, Reference frames        : 2 frames

Codec ID                                 : V_MPEG4/ISO/AVC

Duration                                 : 1 h 51 min

Bit rate                                 : 4 000 kb/s

Width                                    : 1 920 pixels

Height                                   : 808 pixels

Display aspect ratio                     : 2.40:1

Frame rate mode                          : Constant

Frame rate                               : 23.976 (24000/1001) FPS

Color space                              : YUV

Chroma subsampling                       : 4:2:0

Bit depth                                : 8 bits

Scan type                                : Progressive

Bits/(Pixel*Frame)                       : 0.108

Stream size                              : 3.03 GiB (80%)

Writing library                          : x264 core 161 r3018

Encoding settings                        : cabac=1 / ref=2 / deblock=1:0:0 / analyse=0x1:0x131 / me=hex / subme=7 / psy=1 / psy_rd=1.00:0.00 / mixed_ref=0 / me_range=16 / chroma_me=1 / trellis=1 / 8x8dct=0 / cqm=0 / deadzone=21,11 / fast_pskip=1 / chroma_qp_offset=-2 / threads=18 / lookahead_threads=3 / sliced_threads=0 / nr=0 / decimate=1 / interlaced=0 / bluray_compat=0 / constrained_intra=0 / bframes=0 / weightp=2 / keyint=239 / keyint_min=23 / scenecut=40 / intra_refresh=0 / rc_lookahead=40 / rc=abr / mbtree=1 / bitrate=4000 / ratetol=1.0 / qcomp=0.60 / qpmin=10 / qpmax=69 / qpstep=4 / vbv_maxrate=50000 / vbv_bufsize=24000 / nal_hrd=none / filler=0 / ip_ratio=1.40 / aq=3:1.00

Language                                 : English

Default                                  : Yes

Forced                                   : No



Audio #1

ID                                       : 2

Format                                   : AC-3

Format/Info                              : Audio Coding 3

Commercial name                          : Dolby Digital

Codec ID                                 : A_AC3

Duration                                 : 1 h 51 min

Bit rate mode                            : Constant

Bit rate                                 : 448 kb/s

Channel(s)                               : 6 channels

Channel layout                           : L R C LFE Ls Rs

Sampling rate                            : 48.0 kHz

Frame rate                               : 31.250 FPS (1536 SPF)

Bit depth                                : 16 bits

Compression mode                         : Lossy

Stream size                              : 358 MiB (9%)

Title                                    : Itunes

Writing library                          : Lavc58.105.100 ac3_fixed

Language                                 : Italian

Service kind                             : Complete Main

Default                                  : Yes

Forced                                   : No



Audio #2

ID                                       : 3

Format                                   : AC-3

Format/Info                              : Audio Coding 3

Commercial name                          : Dolby Digital

Codec ID                                 : A_AC3

Duration                                 : 1 h 51 min

Bit rate mode                            : Constant

Bit rate                                 : 448 kb/s

Channel(s)                               : 6 channels

Channel layout                           : L R C LFE Ls Rs

Sampling rate                            : 48.0 kHz

Frame rate                               : 31.250 FPS (1536 SPF)

Bit depth                                : 16 bits

Compression mode                         : Lossy

Stream size                              : 358 MiB (9%)

Title                                    : DTS

Writing library                          : Lavc58.105.100 ac3_fixed

Language                                 : English

Service kind                             : Complete Main

Default                                  : No

Forced                                   : No

Discussion

Comments 0

Post Your Comment

Files in this torrent

FILENAMESIZE
Official Secrets-Segreto di stato (2019) ITA-ENG Ac3 5.1 BDRip 1080p H264 [ArMor].mkv3.8 GB
Official.Secrets.Segreto.di.stato.2019.ITA-ENG.Bluray.1080p_ita.srt119.9 KB
Official.Secrets.Segreto.di.stato.2019.ITA-ENG.Bluray.1080p_ita_forced.srt2.3 KB
qw5yw4yu6rujrts.jpg103.4 KB

Alternative Torrents for 'Official SecretsSegreto di stato ENG'.

TORRENT NAMEADDEDSIZESEEDSPEERSHEALTH
8/4/2020776 MB21901457
11/28/20204.2 GB42690
7/30/20202.2 GB19121
7/19/20201.1 GB18319
9/13/20161.8 GB15533
11/25/2020929 MB148107
11/20/20203.6 GB13810
11/23/20202.5 GB13420
11/28/202010.7 GB12685
11/20/2020316 MB12014
11/27/20202.9 GB118136
11/13/20203.3 GB11321
10/30/20203.4 GB10328
11/21/20202.5 GB976
10/28/20202.4 GB9628