Враг у ворот Enemy At The Gates 2001 BDRip-HEVC 1080p

Torrent Details


Враг у ворот Enemy at the Gates 2001 BDRip-HEVC 1080p

NAME
Враг у ворот Enemy at the Gates 2001 BDRip-HEVC 1080p.torrent
CATEGORY
Movies
INFOHASH
4ad332934c40e2d92b530f8153ea2097a97cd1e3
SIZE
10.3 GB in 1 file
ADDED
Uploaded on 12-10-2020 by our crawler pet called "Spidey".
SWARM
0 seeders & 0 peers
RATING
This torrent has a bad rating! This torrent has BAD rating with 0 votes.

Please login to vote for this torrent.


Description

Название: Враг у ворот

Оригинальное название: Enemy at the Gates

Год производства: 2001

Жанр: драма, военный, история

Режиссер: Жан-Жак Анно

В ролях: Джуд Лоу, Рэйчел Вайс, Джозеф Файнс, Эд Харрис, Боб Хоскинс, Рон Перлман, Ева Маттес, Гэбриел Томсон, Маттиас Хабих, София Ройз



О фильме: 1942 год, разгар Сталинградской битвы. Немецкое командование направляет на передовую своего лучшего стрелка, майора Кенига, с особым заданием. Этот опытный и терпеливый профессионал - единственный, кто может попытаться справиться с русским «ангелом смерти» - неуловимым снайпером Василием Зайцевым. Зайцев - легенда и икона для защитников Сталинграда. Каждый день он выносит смертный приговор десяткам захватчиков, попавших в перекрестье его прицела. Между двумя уникальными снайперами начинается смертельная схватка, победителем из которой будет суждено выйти лишь одному...







Страна: Ирландия, Великобритания, Франция, Германия, США

Студия: Paramount Pictures

Продолжительность: 02:11:05

Перевод: дублированный, профессиональный многоголосый, профессиональный двухголосый, авторский одноголосый



Качество: BDRip-HEVC 1080p

Кодек: HEVC (x265)

Видео: 1920x820 (2.35:1), 8707 Кбит/сек, HEVC ([email protected]@High) 10 бит

Звук:

Аудио1: AC3, 6 ch, 448 Kbps - русский Дублированный

Аудио2: AC3, 6 ch, 448 Kbps - русский Многоголосый

Аудио3: AC3, 6 ch, 640 Kbps - русский Двухголосый (Пётр Гланц и Инна Королёва)

Аудио4: AC3, 6 ch, 384 Kbps - русский Авторский (Юрий Живов)

Аудио5: AC3, 6 ch, 640 Kbps - english Original

Субтитры: Русские полные (SRT)

Навигация по главам: Есть



Лог (x265 info)x265 [info]: frame I: 799, Avg QP:18.25 kb/s: 19320.62

x265 [info]: frame P: 31625, Avg QP:19.48 kb/s: 15718.74

x265 [info]: frame B: 156167, Avg QP:21.50 kb/s: 7231.31

x265 [info]: Weighted P-Frames: Y:15.7% UV:13.5%

x265 [info]: Weighted B-Frames: Y:14.0% UV:11.1%

x265 [info]: consecutive B-frames: 1.2% 1.6% 3.1% 22.5% 10.8% 29.7% 6.7% 22.3% 1.1% 0.5% 0.5%

x265 [info]: encoded 188591 frames in 130582.16s (1.44 fps), 8705.79 kb/s, Avg QP:21.14MediainfoФормат : Matroska

Версия формата : Version 4

Размер файла : 10,3 Гбайт

Продолжительность : 2 ч. 11 м.

Общий поток : 11,3 Мбит/сек

Название фильма : Враг.у.ворот.Enemy.at.the.Gates.2001.BDRip-HEVC.1080p

Дата кодирования : UTC 2020-10-10 04:18:17

Программа кодирования : mkvmerge v51.0.0 ('I Wish') 64-bit

Библиотека кодирования : libebml v1.4.0 + libmatroska v1.6.2



Видео

Идентификатор : 1

Формат : HEVC

Формат/Информация : High Efficiency Video Coding

Профиль формата : Main [email protected]@High

Идентификатор кодека : V_MPEGH/ISO/HEVC

Продолжительность : 2 ч. 11 м.

Битрейт : 8 707 Кбит/сек

Ширина : 1 920 пикселей

Высота : 820 пикселей

Соотношение сторон : 2,35:1

Режим частоты кадров : Постоянный

Частота кадров : 23,976 (24000/1001) кадра/сек

Цветовое пространство : YUV

Субдискретизация насыщенности : 4:2:0

Битовая глубина : 10 бит

Бит/(Пиксели*Кадры) : 0.231

Размер потока : 7,97 Гбайт (77%)

Заголовок : Enemy at the Gates / Rip by OldGamer

Библиотека кодирования : x265 3.4+4-g3ae3d7116:[Windows][GCC 10.2.0][64 bit] 10bit

Настройки программы : cpuid=1111039 / frame-threads=3 / numa-pools=8 / wpp / no-pmode / no-pme / no-psnr / no-ssim / log-level=2 / input-csp=1 / input-res=1920x820 / interlace=0 / total-frames=188591 / level-idc=41 / high-tier=1 / uhd-bd=0 / ref=5 / no-allow-non-conformance / no-repeat-headers / annexb / no-aud / no-hrd / info / hash=0 / no-temporal-layers / open-gop / min-keyint=23 / keyint=240 / gop-lookahead=0 / bframes=10 / b-adapt=2 / b-pyramid / bframe-bias=0 / rc-lookahead=60 / lookahead-slices=0 / scenecut=40 / hist-scenecut=0 / radl=0 / no-splice / no-intra-refresh / ctu=64 / min-cu-size=8 / rect / amp / max-tu-size=32 / tu-inter-depth=4 / tu-intra-depth=4 / limit-tu=1 / rdoq-level=2 / dynamic-rd=0.00 / no-ssim-rd / signhide / no-tskip / nr-intra=0 / nr-inter=0 / no-constrained-intra / no-strong-intra-smoothing / max-merge=5 / limit-refs=3 / no-limit-modes / me=3 / subme=7 / merange=57 / temporal-mvp / no-frame-dup / no-hme / weightp / weightb / no-analyze-src-pics / deblock=-3:-3 / no-sao / no-sao-non-deblock / rd=6 / selective-sao=0 / no-early-skip / rskip / no-fast-intra / no-tskip-fast / no-cu-lossless / b-intra / no-splitrd-skip / rdpenalty=0 / psy-rd=2.00 / psy-rdoq=1.00 / no-rd-refine / no-lossless / cbqpoffs=0 / crqpoffs=0 / rc=crf / crf=19.6 / qcomp=0.60 / qpstep=4 / stats-write=0 / stats-read=0 / vbv-maxrate=50000 / vbv-bufsize=50000 / vbv-init=0.9 / crf-max=0.0 / crf-min=0.0 / ipratio=1.40 / pbratio=1.30 / aq-mode=1 / aq-strength=0.80 / no-cutree / zone-count=1 / zones: / start-frame=180697 / end-frame=188580 / qp=36 / no-strict-cbr / qg-size=32 / no-rc-grain / qpmax=69 / qpmin=0 / no-const-vbv / sar=1 / overscan=0 / videoformat=5 / range=0 / colorprim=2 / transfer=2 / colormatrix=2 / chromaloc=0 / display-window=0 / cll=0,0 / min-luma=0 / max-luma=1023 / log2-max-poc-lsb=8 / vui-timing-info / vui-hrd-info / slices=1 / no-opt-qp-pps / no-opt-ref-list-length-pps / no-multi-pass-opt-rps / scenecut-bias=0.00 / hist-threshold=0.01 / no-opt-cu-delta-qp / no-aq-motion / no-hdr10 / no-hdr10-opt / no-dhdr10-opt / no-idr-recovery-sei / analysis-reuse-level=0 / analysis-save-reuse-level=0 / analysis-load-reuse-level=0 / scale-factor=0 / refine-intra=0 / refine-inter=0 / refine-mv=1 / refine-ctu-distortion=0 / no-limit-sao / ctu-info=0 / no-lowpass-dct / refine-analysis-type=0 / copy-pic=1 / max-ausize-factor=1.0 / no-dynamic-refine / no-single-sei / no-hevc-aq / no-svt / no-field / qp-adaptation-range=1.00 / no-scenecut-aware-qpconformance-window-offsets / right=0 / bottom=0 / decoder-max-rate=0

Язык : English

Default : Да

Forced : Нет



Аудио #1

Идентификатор : 2

Формат : AC-3

Формат/Информация : Audio Coding 3

Коммерческое название : Dolby Digital

Идентификатор кодека : A_AC3

Продолжительность : 2 ч. 10 м.

Вид битрейта : Постоянный

Битрейт : 448 Кбит/сек

Каналы : 6 каналов

Channel layout : L R C LFE Ls Rs

Частота : 48,0 КГц

Частота кадров : 31,250 кадров/сек (1536 SPF)

Метод сжатия : С потерями

Задержка видео : 13 с. 0 мс.

Размер потока : 419 Мбайт (4%)

Заголовок : DUB

Язык : Russian

Service kind : Complete Main

Default : Да

Forced : Нет



Аудио #2

Идентификатор : 3

Формат : AC-3

Формат/Информация : Audio Coding 3

Коммерческое название : Dolby Digital

Идентификатор кодека : A_AC3

Продолжительность : 2 ч. 11 м.

Вид битрейта : Постоянный

Битрейт : 448 Кбит/сек

Каналы : 6 каналов

Channel layout : L R C LFE Ls Rs

Частота : 48,0 КГц

Частота кадров : 31,250 кадров/сек (1536 SPF)

Метод сжатия : С потерями

Задержка видео : 1 с. 0 мс.

Размер потока : 420 Мбайт (4%)

Заголовок : MVO

Язык : Russian

Service kind : Complete Main

Default : Нет

Forced : Нет



Аудио #3

Идентификатор : 4

Формат : AC-3

Формат/Информация : Audio Coding 3

Коммерческое название : Dolby Digital

Идентификатор кодека : A_AC3

Продолжительность : 2 ч. 11 м.

Вид битрейта : Постоянный

Битрейт : 640 Кбит/сек

Каналы : 6 каналов

Channel layout : L R C LFE Ls Rs

Частота : 48,0 КГц

Частота кадров : 31,250 кадров/сек (1536 SPF)

Метод сжатия : С потерями

Размер потока : 600 Мбайт (6%)

Заголовок : DVO (Пётр Гланц и Инна Королёва)

Язык : Russian

Service kind : Complete Main

Default : Нет

Forced : Нет



Аудио #4

Идентификатор : 5

ID in the original source medium : 4354 (0x1102)

Формат : AC-3

Формат/Информация : Audio Coding 3

Коммерческое название : Dolby Digital

Идентификатор кодека : A_AC3

Продолжительность : 2 ч. 10 м.

Вид битрейта : Постоянный

Битрейт : 384 Кбит/сек

Каналы : 6 каналов

Channel layout : L R C LFE Ls Rs

Частота : 48,0 КГц

Частота кадров : 31,250 кадров/сек (1536 SPF)

Метод сжатия : С потерями

Задержка видео : 6 с. 632 мс.

Размер потока : 360 Мбайт (3%)

Заголовок : AVO (Юрий Живов)

Язык : Russian

Service kind : Complete Main

Default : Нет

Forced : Нет

Носитель оригинала : Blu-ray



Аудио #5

Идентификатор : 6

ID in the original source medium : 4352 (0x1100)

Формат : AC-3

Формат/Информация : Audio Coding 3

Коммерческое название : Dolby Digital

Идентификатор кодека : A_AC3

Продолжительность : 2 ч. 11 м.

Вид битрейта : Постоянный

Битрейт : 640 Кбит/сек

Каналы : 6 каналов

Channel layout : L R C LFE Ls Rs

Частота : 48,0 КГц

Частота кадров : 31,250 кадров/сек (1536 SPF)

Метод сжатия : С потерями

Размер потока : 600 Мбайт (6%)

Язык : English

Service kind : Complete Main

Default : Нет

Forced : Нет

Носитель оригинала : Blu-ray



Текст

Идентификатор : 7

Формат : UTF-8

Идентификатор кодека : S_TEXT/UTF8

Идентификатор кодека/Информация : UTF-8 Plain Text

Продолжительность : 2 ч. 2 м.

Битрейт : 67 бит/сек

Count of elements : 1008

Размер потока : 60,1 Кбайт (0%)

Язык : Russian

Default : Нет

Forced : Нет



Меню

00:00:00.000 : en:Chapter 01

00:02:48.126 : en:Chapter 02

00:09:48.796 : en:Chapter 03

00:15:12.286 : en:Chapter 04

00:22:10.912 : en:Chapter 05

00:34:14.218 : en:Chapter 06

00:37:09.101 : en:Chapter 07

00:46:19.610 : en:Chapter 08

00:50:45.792 : en:Chapter 09

00:56:06.613 : en:Chapter 10

01:02:41.841 : en:Chapter 11

01:08:24.642 : en:Chapter 12

01:16:47.436 : en:Chapter 13

01:22:37.160 : en:Chapter 14

01:29:50.593 : en:Chapter 15

01:35:52.997 : en:Chapter 16

01:42:06.078 : en:Chapter 17

01:55:03.396 : en:Chapter 18

01:57:28.082 : en:Chapter 19

02:01:21.148 : en:Chapter 20Скриншоты





Релиз от: OldGamer

Discussion

Comments 0

Post Your Comment

Files in this torrent

FILENAMESIZE
Враг.у.ворот.Enemy.at.the.Gates.2001.BDRip-HEVC.1080p.mkv10.3 GB

Alternative Torrents for 'Враг у ворот Enemy at Gates HEVC'.

TORRENT NAMEADDEDSIZESEEDSPEERSHEALTH
10/12/202010.3 GB00
5/3/20194.3 GB00
7/14/20182.1 GB00
6/21/20185.1 GB00