The Old Guard (2020) 2160p HDR 5 1 X265 10bit Phun Psyz

Torrent Details

The Old Guard (2020) 2160p HDR 5 1 x265 10bit Phun Psyz
The Old Guard (2020) 2160p HDR 5 1 x265 10bit Phun Psyz

NAME
The Old Guard (2020) 2160p HDR 5 1 x265 10bit Phun Psyz.torrent
CATEGORY
Movies
INFOHASH
3eddd7c62b51cbe7633e385a93f8d12d48eaf159
SIZE
2.1 GB in 1 file
ADDED
Uploaded on 16-10-2020 by our crawler pet called "Spidey".
SWARM
16 seeders & 5 peers
RATING
No votes yet.

Please login to vote for this torrent.


Description

www.imdb.com/title/tt7556122/



A covert team of immortal mercenaries are suddenly exposed and must now fight to keep their identity a secret just as an unexpected new member is discovered.



Source: DDR (Web)







Format                      : Matroska

Format version              : Version 4

File size                   : 2.10 GiB

Duration                    : 2 h 5 min

Overall bit rate            : 2 388 kb/s

Writing application         : HandBrake 1.3.3 2020061300

Writing library             : Lavf58.29.100



Video

ID                          : 1

Format                      : HEVC

Format/Info                 : High Efficiency Video Coding

Format profile              : Main [email protected]@High

Codec ID                    : V_MPEGH/ISO/HEVC

Duration                    : 2 h 4 min

Bit rate                    : 2 021 kb/s

Width                       : 3 840 pixels

Height                      : 1 608 pixels

Display aspect ratio        : 2.40:1

Frame rate mode             : Constant

Frame rate                  : 24.000 FPS

Color space                 : YUV

Chroma subsampling          : 4:2:0

Bit depth                   : 10 bits

Bits/(Pixel*Frame)          : 0.014

Stream size                 : 1.75 GiB (84%)

Writing library             : x265 3.2.1+1-b5c86a64bbbe:[Windows][GCC 9.2.0][64 bit] 10bit

Color range                 : Full

Color primaries             : BT.2020

Transfer characteristics    : PQ

Matrix coefficients         : BT.2020 non-constant



Audio

ID                          : 2

Format                      : AC-3

Format/Info                 : Audio Coding 3

Commercial name             : Dolby Digital

Codec ID                    : A_AC3

Duration                    : 2 h 5 min

Bit rate mode               : Constant

Bit rate                    : 320 kb/s

Channel(s)                  : 6 channels

Channel layout              : L R C LFE Ls Rs

Sampling rate               : 48.0 kHz

Frame rate                  : 31.250 FPS (1536 SPF)

Compression mode            : Lossy

Delay relative to video     : 9 ms

Stream size                 : 287 MiB (13%)

Language                    : English

Service kind                : Complete Main

Default                     : Yes



Text

Language                    : English

Default                     : No

Forced                      : No

Discussion

Comments 0

Post Your Comment

Files in this torrent

FILENAMESIZE
The Old Guard (2020) 2160p HDR 5.1 x265 10bit Phun Psyz.mkv2.1 GB

Alternative Torrents for 'Old Guard HDR bit Phun Psyz'.

TORRENT NAMEADDEDSIZESEEDSPEERSHEALTH
7/11/20202.3 GB851262
7/11/20201.1 GB742180
11/28/20203.9 GB499979
7/13/20202 GB3967
7/10/2020797 MB33626
11/14/20205.4 GB27875
8/1/20201.7 GB2703
7/13/20202 GB2553
11/13/20205.2 GB243171
9/7/20201.8 GB2387
8/1/20202 GB2096
9/4/20202 GB1982
11/20/202015.5 GB14622
8/24/20201.7 GB1330
7/10/20205.8 GB1323