Maou Gakuin No Futekigousha

Torrent Details


Maou Gakuin No Futekigousha

NAME
Maou Gakuin No Futekigousha.torrent
CATEGORY
Anime
INFOHASH
c2f96b9f14f492ee612a66ad4e9bf6923b41ab4d
SIZE
7.1 GB in 13 files
ADDED
Uploaded on 16-10-2020 by our crawler pet called "Spidey".
SWARM
5 seeders & 4 peers
RATING
No votes yet.

Please login to vote for this torrent.


Description

Информация о фильме

Название: Непризнанный школой владыка демонов!

Оригинальное название: Maou Gakuin no Futekigousha

Год выхода: 2020

Жанр: магия, фэнтези, школа

Режиссер: Онума Син

В ролях: Судзуки Тацухиса, Кусуноки Томори, Нацуёси Юко



О фильме:

Жестокий владыка тьмы, поверженный две тысячи лет назад, возродился... Однако в академии, где учат кандидатов во владыки тьмы, ему поставили оценку… «не годен»?! Он уничтожал людей, духов и даже богов, но бесконечная война наскучила ему, и владыка тьмы Анос Волдигод переродился с мечтой о спокойном мире. Только две тысячи лет спустя его ждали крайне ослабевшие от мирной жизни потомки и пришедшая в полный упадок магия. Анос отправился в Академию владыки тьмы, где собирают и воспитывают тех, кто может оказаться перерождённым владыкой, но там не разглядели его силы и заклеймили негодным. Более того, все считают, что между ним и легендарным владыкой тьмы нет ничего общего. Окружающие считают его ниже себя, а из последователей у Аноса — только девушка Миша, которая одна была к нему добра. Так начинается путь негодного владыки тьмы вверх по магической иерархии. «Будь то волей провидения, судьбы или чуда, рано или поздно передо мной все падут ниц.»





Страна: Япония

Студия: Silver Link

Продолжительность: 00:23:40

Перевод: Профессиональный многоголосый (закадровый) | StudioBand [Wakanim]

Любительский многоголосый (закадровый) | AniLibria

Любительский многоголосый (закадровый) | Onibaku



Файл

Кодек: x265 HEVC

Качество: WEBRip-HEVC 1080p

Видео: x265, 1920x1080, 1966 kbps, 23.976 fps

Звук:

Звук (Rus(int)): AC-3, 192 kbps, 48,0 KHz, 2 ch | [StudioBand]

Звук (Rus(int)): AC-3, 192 kbps, 48,0 KHz, 2 ch | [AniLibria]

Звук (Rus(int)): AC-3, 192 kbps, 48,0 KHz, 2 ch | [Onibaku]

Звук (Japanese): AC-3, 192 kbps, 48,0 KHz, 2 ch | [Original]

Субтитры: русские (встроенные полный перевод, ASS)

MediaInfo:Видео

Идентификатор : 1

Формат : HEVC

Формат/Информация : High Efficiency Video Coding

Профиль формата : [email protected]@Main

Идентификатор кодека : V_MPEGH/ISO/HEVC

Продолжительность : 23 м. 39 с.

Битрейт : 2 630 Кбит/сек

Ширина : 1 920 пикселей

Высота : 1 080 пикселей

Соотношение сторон : 16:9

Режим частоты кадров : Постоянный

Частота кадров : 23,976 (24000/1001) кадра/сек

Цветовое пространство : YUV

Субдискретизация насыщенности : 4:2:0

Битовая глубина : 8 бит

Бит/(Пиксели*Кадры) : 0.053

Размер потока : 445 Мбайт (77%)

Библиотека кодирования : x265 3.2.1+1-b5c86a64bbbe:[Windows][GCC 9.2.0][64 bit] 8bit+10bit+12bit



Аудио #1

Идентификатор : 2

Формат : AC-3

Формат/Информация : Audio Coding 3

Коммерческое название : Dolby Digital

Идентификатор кодека : A_AC3

Продолжительность : 23 м. 40 с.

Вид битрейта : Постоянный

Битрейт : 192 Кбит/сек

Каналы : 2 канала

Channel layout : L R

Частота : 48,0 КГц

Частота кадров : 31,250 кадров/сек (1536 SPF)

Метод сжатия : С потерями

Задержка видео : -23 мс.

Размер потока : 32,5 Мбайт (6%)

Заголовок : StudioBand

Язык : Russian

Service kind : Complete Main

Default : Да

Forced : Нет



Аудио #2

Идентификатор : 3

Формат : AC-3

Формат/Информация : Audio Coding 3

Коммерческое название : Dolby Digital

Идентификатор кодека : A_AC3

Продолжительность : 23 м. 40 с.

Вид битрейта : Постоянный

Битрейт : 192 Кбит/сек

Каналы : 2 канала

Channel layout : L R

Частота : 48,0 КГц

Частота кадров : 31,250 кадров/сек (1536 SPF)

Метод сжатия : С потерями

Задержка видео : -23 мс.

Размер потока : 32,5 Мбайт (6%)

Заголовок : AniLibria

Язык : Russian

Service kind : Complete Main

Default : Нет

Forced : Нет



Аудио #3

Идентификатор : 4

Формат : AC-3

Формат/Информация : Audio Coding 3

Коммерческое название : Dolby Digital

Идентификатор кодека : A_AC3

Продолжительность : 23 м. 40 с.

Вид битрейта : Постоянный

Битрейт : 192 Кбит/сек

Каналы : 2 канала

Channel layout : L R

Частота : 48,0 КГц

Частота кадров : 31,250 кадров/сек (1536 SPF)

Метод сжатия : С потерями

Задержка видео : -23 мс.

Размер потока : 32,5 Мбайт (6%)

Заголовок : OnibakuGroup

Язык : Russian

Service kind : Complete Main

Default : Нет

Forced : Нет



Аудио #4

Идентификатор : 5

Формат : AC-3

Формат/Информация : Audio Coding 3

Коммерческое название : Dolby Digital

Идентификатор кодека : A_AC3

Продолжительность : 23 м. 40 с.

Вид битрейта : Постоянный

Битрейт : 192 Кбит/сек

Каналы : 2 канала

Channel layout : L R

Частота : 48,0 КГц

Частота кадров : 31,250 кадров/сек (1536 SPF)

Метод сжатия : С потерями

Задержка видео : -23 мс.

Размер потока : 32,5 Мбайт (6%)

Заголовок : Original

Язык : Japanese

Service kind : Complete Main

Default : Нет

Forced : Нет



Текст #1

Идентификатор : 6

Формат : ASS

Идентификатор кодека : S_TEXT/ASS

Идентификатор кодека/Информация : Advanced Sub Station Alpha

Продолжительность : 22 м. 38 с.

Битрейт : 1 бит/сек

Count of elements : 2

Метод сжатия : Без потерь

Размер потока : 223 байт (0%)

Заголовок : Надписи

Язык : Russian

Default : Да

Forced : Да



Текст #2

Идентификатор : 7

Формат : ASS

Идентификатор кодека : S_TEXT/ASS

Идентификатор кодека/Информация : Advanced Sub Station Alpha

Продолжительность : 23 м. 37 с.

Битрейт : 174 бит/сек

Count of elements : 406

Метод сжатия : Без потерь

Размер потока : 30,3 Кбайт (0%)

Заголовок : Полные субтитры

Язык : Russian

Default : Нет

Forced : Нет

Скриншоты

Discussion

Comments 0

Post Your Comment

Files in this torrent

FILENAMESIZE
Maou Gakuin No Futekigousha 01.mkv576.5 MB
Maou Gakuin No Futekigousha 02.mkv525.8 MB
Maou Gakuin No Futekigousha 03.mkv431.9 MB
Maou Gakuin No Futekigousha 04.mkv547.9 MB
Maou Gakuin No Futekigousha 05.mkv475.4 MB
Maou Gakuin No Futekigousha 06.mkv410.9 MB
Maou Gakuin No Futekigousha 07.mkv549.5 MB
Maou Gakuin No Futekigousha 08.mkv586.9 MB
Maou Gakuin No Futekigousha 09.mkv505 MB
Maou Gakuin No Futekigousha 10.mkv549.6 MB
Maou Gakuin No Futekigousha 11.mkv801.4 MB
Maou Gakuin No Futekigousha 12.mkv599.5 MB
Maou Gakuin No Futekigousha 13.mkv717.1 MB

Alternative Torrents for 'Maou Gakuin No Futekigousha'.

TORRENT NAMEADDEDSIZESEEDSPEERSHEALTH
9/26/20201.3 GB2253
9/19/20201.3 GB2173
9/12/20201.3 GB1892
9/5/20201.3 GB1860
8/29/20201.3 GB1850
8/22/20201.3 GB1803
8/8/20201.3 GB1633
7/25/20201.3 GB1632
7/4/20201.3 GB1633
9/26/2020698 MB1620
8/15/20201.3 GB1624
7/11/20201.3 GB1553
7/18/20201.3 GB1484
8/1/20201.3 GB1462
9/19/2020697 MB1410