The Outpost 2020 BDRip 1080p SeleZen

Torrent Details

The Outpost 2020 BDRip 1080p<span style=color:#fc9c6d> seleZen</span>
The Outpost 2020 BDRip 1080p<span style=color:#fc9c6d> seleZen</span>

NAME
The Outpost 2020 BDRip 1080p seleZen.torrent
CATEGORY
Movies
INFOHASH
e75e7653e614c74428d547f41c3da88a08f2a164
SIZE
17 GB in 1 file
ADDED
Uploaded on 18-10-2020 by our crawler pet called "Spidey".
SWARM
21 seeders & 3 peers
RATING
No votes yet.

Please login to vote for this torrent.


Description

Информация о фильме

Название: Форпост

Оригинальное название: The Outpost

Год выхода: 2020

Жанр: Боевик, военный, драма, реальные события, экранизация

Режиссер: Род Лури

В ролях: Орландо Блум, Скотт Иствуд, Калеб Лэндри Джонс, Майло Гибсон, Бобби Локвуд, Джейкоб Скипио, Джек Кеси, Селина Синден, Тейлор Джон Смит, Александр Арнольд, Джеймс Джаггер







О фильме: Действия фильма происходят 3 октября 2009 года в Афганистане. У подножия гор, недалеко от поселения Кадмеш, расположился американский Форпост. Тай Картер и сержант Ромеш Клинтон имеют в своем распоряжении пятьдесят три бойца. Никто из них не ожидал, что им предстоит отбивать прорыв многочисленной банды талибов. Четыреста человек готовятся к наступлению, и солдаты просто не могут отдать позиции. Несмотря на неравные силы, бойцы готовы дать отпор, действуя строго по уставу. Им не приходится ждать помощи, поскольку следующая база слишком далека от них. Смогут ли они выполнить свой долг и отбить нападение, и какую цену им предстоит заплатить?..



Страна: США, Болгария

Студия: Millennium Media, York Films

Продолжительность: 02:03:11

Перевод(ы):

#1: Дублированный | iTunes

#2: Профессиональный многоголосый | HDRezka Studio



Качество: BDRip 1080p

Видео: MPEG-4 AVC, 1920x1040, 27.9 Mbit/s, 23.976 fps

Аудио #01: 48 kHz, AC3, 5.1, 384 Kbps | iTunes | RUS |

Аудио #02: 48 kHz, AC3, 5.1, 448 Kbps | HDRezka Studio (cens.) | RUS |

Аудио #03: 48 kHz, AC3, 5.1, 448 Kbps | HDRezka Studio (no cens.) | RUS |

Аудио #04: 48 kHz, AC3, 5.1, 640 Kbps | Оригинал | ENG |

Субтитры: Русские (Forced), английские







MIGeneral

Unique ID : 214207830267423162554685441215260098529 (0xA126ED6E3E3612D5F143D342F4A57FE1)

Complete name : D:Video111The.Outpost.2020.BDRip.1080p.seleZen.mkv

Format : Matroska

Format version : Version 4

File size : 17.0 GiB

Duration : 2 h 3 min

Overall bit rate : 19.8 Mb/s

Movie name : The Outpost 2020 from селезень

Encoded date : UTC 2020-10-18 18:54:33

Writing application : mkvmerge v40.0.0 ('Old Town Road + Pony') 64-bit

Writing library : libebml v1.3.9 + libmatroska v1.5.2



Video

ID : 1

Format : AVC

Format/Info : Advanced Video Codec

Format profile : [email protected]

Format settings : CABAC / 4 Ref Frames

Format settings, CABAC : Yes

Format settings, Reference : 4 frames

Codec ID : V_MPEG4/ISO/AVC

Duration : 2 h 3 min

Bit rate : 17.8 Mb/s

Width : 1 920 pixels

Height : 1 040 pixels

Display aspect ratio : 1.85:1

Frame rate mode : Constant

Frame rate : 23.976 (24000/1001) FPS

Color space : YUV

Chroma subsampling : 4:2:0

Bit depth : 8 bits

Scan type : Progressive

Bits/(Pixel*Frame) : 0.373

Stream size : 15.3 GiB (90%)

Title : playHD

Writing library : x264 core 144 r2525 40bb568

Encoding settings : cabac=1 / ref=4 / deblock=1:-3:-3 / analyse=0x3:0x133 / me=umh / subme=10 / psy=1 / psy_rd=1.00:0.00 / mixed_ref=1 / me_range=32 / chroma_me=1 / trellis=2 / 8x8dct=1 / cqm=0 / deadzone=21,11 / fast_pskip=0 / chroma_qp_offset=-2 / threads=12 / lookahead_threads=2 / sliced_threads=0 / nr=0 / decimate=0 / interlaced=0 / bluray_compat=0 / constrained_intra=0 / bframes=9 / b_pyramid=2 / b_adapt=2 / b_bias=0 / direct=3 / weightb=1 / open_gop=0 / weightp=2 / keyint=250 / keyint_min=23 / scenecut=40 / intra_refresh=0 / rc=crf / mbtree=0 / crf=17.5 / qcomp=0.60 / qpmin=0 / qpmax=69 / qpstep=4 / ip_ratio=1.30 / pb_ratio=1.20 / aq=3:0.85

Language : English

Default : Yes

Forced : No



Audio #1

ID : 2

Format : AC-3

Format/Info : Audio Coding 3

Commercial name : Dolby Digital

Codec ID : A_AC3

Duration : 2 h 3 min

Bit rate mode : Constant

Bit rate : 384 kb/s

Channel(s) : 6 channels

Channel layout : L R C LFE Ls Rs

Sampling rate : 48.0 kHz

Frame rate : 31.250 FPS (1536 SPF)

Compression mode : Lossy

Stream size : 339 MiB (2%)

Title : iTunes

Language : Russian

Service kind : Complete Main

Default : Yes

Forced : Yes



Audio #2

ID : 3

Format : AC-3

Format/Info : Audio Coding 3

Commercial name : Dolby Digital

Codec ID : A_AC3

Duration : 2 h 3 min

Bit rate mode : Constant

Bit rate : 448 kb/s

Channel(s) : 6 channels

Channel layout : L R C LFE Ls Rs

Sampling rate : 48.0 kHz

Frame rate : 31.250 FPS (1536 SPF)

Compression mode : Lossy

Stream size : 395 MiB (2%)

Title : MVO (HDRezka Studio) Censored

Language : Russian

Service kind : Complete Main

Default : No

Forced : No



Audio #3

ID : 4

Format : AC-3

Format/Info : Audio Coding 3

Commercial name : Dolby Digital

Codec ID : A_AC3

Duration : 2 h 3 min

Bit rate mode : Constant

Bit rate : 448 kb/s

Channel(s) : 6 channels

Channel layout : L R C LFE Ls Rs

Sampling rate : 48.0 kHz

Frame rate : 31.250 FPS (1536 SPF)

Compression mode : Lossy

Stream size : 395 MiB (2%)

Title : MVO (HDRezka Studio) Uncensored

Language : Russian

Service kind : Complete Main

Default : No

Forced : No



Audio #4

ID : 5

Format : AC-3

Format/Info : Audio Coding 3

Commercial name : Dolby Digital

Codec ID : A_AC3

Duration : 2 h 3 min

Bit rate mode : Constant

Bit rate : 640 kb/s

Channel(s) : 6 channels

Channel layout : L R C LFE Ls Rs

Sampling rate : 48.0 kHz

Frame rate : 31.250 FPS (1536 SPF)

Compression mode : Lossy

Stream size : 564 MiB (3%)

Title : Original

Language : English

Service kind : Complete Main

Default : No

Forced : No



Text #1

ID : 6

Format : UTF-8

Codec ID : S_TEXT/UTF8

Codec ID/Info : UTF-8 Plain Text

Duration : 1 h 59 min

Bit rate : 8 b/s

Count of elements : 114

Stream size : 7.13 KiB (0%)

Title : Forced [For HDRezka Studio]

Language : Russian

Default : No

Forced : No



Text #2

ID : 7

Format : UTF-8

Codec ID : S_TEXT/UTF8

Codec ID/Info : UTF-8 Plain Text

Duration : 2 h 1 min

Bit rate : 78 b/s

Count of elements : 2805

Stream size : 69.7 KiB (0%)

Title : Full

Language : English

Default : No

Forced : No



Text #3

ID : 8

Format : UTF-8

Codec ID : S_TEXT/UTF8

Codec ID/Info : UTF-8 Plain Text

Duration : 2 h 1 min

Bit rate : 82 b/s

Count of elements : 3041

Stream size : 73.8 KiB (0%)

Title : SDH

Language : English

Default : No

Forced : No



Menu

00:00:00.000 : :Chapter 01

00:10:37.554 : :Chapter 02

00:15:19.418 : :Chapter 03

00:24:02.983 : :Chapter 04

00:32:55.182 : :Chapter 05

00:41:56.180 : :Chapter 06

00:47:04.071 : :Chapter 07

00:55:31.119 : :Chapter 08

01:03:51.369 : :Chapter 09

01:12:44.193 : :Chapter 10

01:19:51.787 : :Chapter 11

01:29:15.016 : :Chapter 12

01:35:39.776 : :Chapter 13

01:42:10.374 : :Chapter 14

01:45:06.217 : :Chapter 15

01:54:08.383 : :Chapter 16



Релиз: Присоединяйся к:



Discussion

Comments 0

Post Your Comment

Files in this torrent

FILENAMESIZE
The.Outpost.2020.BDRip.1080p.seleZen.mkv17 GB

Alternative Torrents for 'Outpost'.

TORRENT NAMEADDEDSIZESEEDSPEERSHEALTH
8/1/20202 GB2096
11/23/2020255 MB10218
11/23/2020391 MB9828
8/3/20205.1 GB963
10/18/20202.2 GB903
11/24/2020413 MB777
11/6/2020311 MB7110
11/8/20201.4 GB683
8/8/20201.4 GB655
10/9/2020343 MB565
10/30/2020296 MB5310
10/23/2020351 MB459
11/23/2020167 MB404
11/22/20206 GB3943
10/30/2020211 MB386