Ben 10 Vs The Universe The Movie (2020) WEB-DL 1080p [UKR][ENG][Hurtom]

Torrent Details

Ben 10 vs  the Universe The Movie (2020) WEB-DL 1080p [UKR][ENG][Hurtom]

NAME
Ben 10 vs the Universe The Movie (2020) WEB-DL 1080p [UKR][ENG][Hurtom].torrent
CATEGORY
Movies
INFOHASH
4aa4d83b2c316301f946f4bb5eb97751f1d6a2e0
SIZE
2.7 GB in 1 file
ADDED
Uploaded on 19-10-2020 by our crawler pet called "Spidey".
SWARM
0 seeders & 0 peers
RATING
No votes yet.

Please login to vote for this torrent.


Description

Информация о фильме

Название: Бен 10 против Вселенной: Фильм

Оригинальное название: Ben 10 vs. the Universe: The Movie

Год выхода: 2020

Жанр: мультфильм, боевик, приключения





Режиссер: Henrique Jardim, Джон Макинтайр





В ролях: Монце Эрнандез, Дэвид Кэй, Грег Сайпс, Роджер Крэйг Смит, Дэрил Сабара, Тодд Хаберкорн, Том Кенни, Джошуа Китон, Трэвис Уиллингэм, Обада Аднан





О фильме:

Бену придется столкнуться со своим прошлым, которое вернется словно бумеранг и нанесет двойной удар — по команде Теннисонов и по планете Земля. Мальчику предстоит снова отправиться к звёздам, чтобы спасти мир от злодея Вилгаска.











Страна: США

Продолжительность: 01:12:06

Перевод: Профессиональный (многоголосый, закадровый) (Украинский)





Файл

Кодек: x.264

Качество: WEB-DL 1080p

Видео: AVC, 1916x1076 (16:9), 23.976 fps, 5 070 kb/s

Аудио 1: AC-3, 48.0 kHz, 2 ch, 192 kb/s (Ukrainian)

Аудио 2: AAC, 48.0 kHz, 2 ch, 126 kb/s (English)

Субтитры: английские





MIGeneral

Unique ID : 68621175182009693200522432684040702357 (0x339FF525F14B65FB89514D0BDD8CC995)

Complete name : Ben 10 vs. the Universe The Movie (2020) WEB-DL 1080p [UKR][ENG][Hurtom].mkv

Format : Matroska

Format version : Version 4

File size : 2.72 GiB

Duration : 1 h 12 min

Overall bit rate : 5 392 kb/s

Movie name : Бен 10 Проти Всесвіту / Ben 10 vs. the Universe: The Movie (2020) WEB-DL 1080p [UKR][ENG][Hurtom]

Encoded date : UTC 2020-10-19 06:00:32

Writing application : mkvmerge v46.0.0 ('No Deeper Escape') 64-bit

Writing library : libebml v1.3.10 + libmatroska v1.5.2

Cover : Yes

Attachments : cover.jpg



Video

ID : 1

Format : AVC

Format/Info : Advanced Video Codec

Format profile : [email protected]

Format settings : CABAC / 4 Ref Frames

Format settings, CABAC : Yes

Format settings, ReFrames : 4 frames

Codec ID : V_MPEG4/ISO/AVC

Duration : 1 h 12 min

Bit rate : 5 070 kb/s

Width : 1 916 pixels

Height : 1 076 pixels

Display aspect ratio : 16:9

Frame rate mode : Constant

Frame rate : 23.976 (24000/1001) FPS

Color space : YUV

Chroma subsampling : 4:2:0

Bit depth : 8 bits

Scan type : Progressive

Bits/(Pixel*Frame) : 0.103

Stream size : 2.55 GiB (94%)

Title : Ben.10.vs.the.Universe.The.Movie.2020.1080p.WEB-DL.AAC2.0.H264-FGT

Language : English

Default : Yes

Forced : No

Color range : Limited

Color primaries : BT.709

Transfer characteristics : BT.709

Matrix coefficients : BT.709



Audio #1

ID : 2

Format : AC-3

Format/Info : Audio Coding 3

Commercial name : Dolby Digital

Codec ID : A_AC3

Duration : 1 h 12 min

Bit rate mode : Constant

Bit rate : 192 kb/s

Channel(s) : 2 channels

Channel layout : L R

Sampling rate : 48.0 kHz

Frame rate : 31.250 FPS (1536 SPF)

Bit depth : 16 bits

Compression mode : Lossy

Stream size : 99.0 MiB (4%)

Title : [UKR-MVO-Stereo]

Language : Ukrainian

Service kind : Complete Main

Default : Yes

Forced : Yes



Audio #2

ID : 3

Format : AAC LC

Format/Info : Advanced Audio Codec Low Complexity

Codec ID : A_AAC-2

Duration : 1 h 12 min

Bit rate : 126 kb/s

Channel(s) : 2 channels

Channel layout : L R

Sampling rate : 48.0 kHz

Frame rate : 46.875 FPS (1024 SPF)

Compression mode : Lossy

Stream size : 65.1 MiB (2%)

Title : [Original]

Language : English

Default : No

Forced : No



Text

ID : 4

Format : UTF-8

Codec ID : S_TEXT/UTF8

Codec ID/Info : UTF-8 Plain Text

Duration : 1 h 11 min

Bit rate : 76 b/s

Count of elements : 1337

Stream size : 39.5 KiB (0%)

Language : English

Default : No

Forced : NoСкриншоты

Discussion

Comments 0

Post Your Comment

Files in this torrent

FILENAMESIZE
Ben 10 vs. the Universe The Movie (2020) WEB-DL 1080p [UKR][ENG][Hurtom].mkv2.7 GB

Alternative Torrents for 'Ben vs Universe Movie UKRENGHurtom'.

There are no alternative torrents found.