Калашников (2020) [GER Transfer] BDRip 1080p [HEVC] 10 Bit Rip_by_Siren_Head

Torrent Details

Калашников (2020) [GER Transfer] BDRip 1080p [HEVC] 10 bit rip_by_Siren_HeadКалашников (2020) [GER Transfer] BDRip 1080p [HEVC] 10 bit rip_by_Siren_Head

NAME
Калашников (2020) [GER Transfer] BDRip 1080p [HEVC] 10 bit rip_by_Siren_Head.torrent
CATEGORY
Movies
INFOHASH
4adfb961120034d6331b6559c0968be229f59e76
SIZE
7.8 GB in 1 file
ADDED
Uploaded on 19-10-2020 by our crawler pet called "Spidey".
SWARM
5 seeders & 0 peers
RATING
No votes yet.

Please login to vote for this torrent.


Description

Название: Калашников

Оригинальное название: Калашников

Год выхода: 2020

Страна: Россия

Студия: RB Production

Жанр: Биография, история

Продолжительность: 01:44:33





Режиссер: Константин Буслов

В ролях: Юрий Борисов, Ольга Лерман, Артур Смольянинов, Эльдар Калимулин, Виталий Хаев, Валерий Баринов, Анатолий Лобоцкий, Алексей Вертков, Дмитрий Богдан, Максим Битюков





Описание: Калашников. Все знают эту фамилию, но не все знают, какой долгий и тернистый путь прошел парень-самоучка, чтобы в 28 создать легендарное оружие АК-47, которое по сей день является символом оружейной мысли нашего времени.





Качество: BDRip-HEVC 1080p

Видео: HEVC/x.265, 1920x856, ~10 Mbps, 10 bit

Аудио 01: AC3, 6 ch, 640 Kbps - Русский, Оригинал (Лицензия)

Субтитры: Русские (форсированные, полные (Enigma))

Навигация по главам: Есть











Релиз от: Siren_Head





Медиаинфо==================================================



x265 info: frame I: 1425, Avg QP:18.44 kb/s: 28530.36

x265 info: frame P: 26444, Avg QP:19.74 kb/s: 18918.49

x265 info: frame B: 122686, Avg QP:22.28 kb/s: 7887.29



==================================================



Формат : Matroska

Версия формата : Version 4

Размер файла : 7,79 Гбайт

Продолжительность : 1 ч. 44 м.

Общий поток : 10,7 Мбит/сек

Название фильма : Калашников (2020) [GER Transfer] rip_by_Siren_Head

Дата кодирования : UTC 2020-10-19 12:39:31

Программа кодирования : mkvmerge v51.0.0 ('I Wish') 64-bit

Библиотека кодирования : libebml v1.4.0 + libmatroska v1.6.2

Attachments : poster.jpg



Видео

Идентификатор : 1

Формат : HEVC

Формат/Информация : High Efficiency Video Coding

Профиль формата : Main [email protected]@High

Идентификатор кодека : V_MPEGH/ISO/HEVC

Продолжительность : 1 ч. 44 м.

Битрейт : 10,0 Мбит/сек

Ширина : 1 920 пикселей

Высота : 856 пикселей

Соотношение сторон : 2,25:1

Режим частоты кадров : Постоянный

Частота кадров : 24,000 кадра/сек

Цветовое пространство : YUV

Субдискретизация насыщенности : 4:2:0

Битовая глубина : 10 бит

Бит/(Пиксели*Кадры) : 0.254

Размер потока : 7,32 Гбайт (94%)

Библиотека кодирования : x265 3.4+20-g343c58ef6:[Windows][clang 10.0.1][64 bit] 10bit

Настройки программы : cpuid=1049583 / frame-threads=5 / numa-pools=4 / wpp / no-pmode / no-pme / no-psnr / no-ssim / log-level=3 / input-csp=1 / input-res=1920x856 / interlace=0 / total-frames=0 / level-idc=41 / high-tier=1 / uhd-bd=0 / ref=5 / allow-non-conformance / no-repeat-headers / annexb / no-aud / no-hrd / info / hash=0 / no-temporal-layers / open-gop / min-keyint=24 / keyint=240 / gop-lookahead=0 / bframes=9 / b-adapt=2 / b-pyramid / bframe-bias=0 / rc-lookahead=40 / lookahead-slices=5 / scenecut=40 / hist-scenecut=0 / radl=0 / no-splice / no-intra-refresh / ctu=32 / min-cu-size=8 / no-rect / no-amp / max-tu-size=32 / tu-inter-depth=4 / tu-intra-depth=4 / limit-tu=1 / rdoq-level=1 / dynamic-rd=0.00 / no-ssim-rd / signhide / no-tskip / nr-intra=0 / nr-inter=0 / no-constrained-intra / no-strong-intra-smoothing / max-merge=5 / limit-refs=1 / no-limit-modes / me=3 / subme=7 / merange=57 / temporal-mvp / no-frame-dup / no-hme / weightp / no-weightb / no-analyze-src-pics / deblock=-3:-3 / no-sao / no-sao-non-deblock / rd=3 / selective-sao=0 / early-skip / rskip / no-fast-intra / no-tskip-fast / no-cu-lossless / b-intra / no-splitrd-skip / rdpenalty=0 / psy-rd=2.00 / psy-rdoq=1.00 / no-rd-refine / no-lossless / cbqpoffs=0 / crqpoffs=0 / rc=crf / crf=21.0 / qcomp=0.60 / qpstep=4 / stats-write=0 / stats-read=0 / vbv-maxrate=50000 / vbv-bufsize=50000 / vbv-init=0.9 / crf-max=0.0 / crf-min=0.0 / ipratio=1.40 / pbratio=1.30 / aq-mode=3 / aq-strength=1.00 / no-cutree / zone-count=0 / no-strict-cbr / qg-size=32 / no-rc-grain / qpmax=69 / qpmin=0 / no-const-vbv / sar=1 / overscan=0 / videoformat=5 / range=0 / colorprim=2 / transfer=2 / colormatrix=2 / chromaloc=0 / display-window=0 / cll=0,0 / min-luma=0 / max-luma=1023 / log2-max-poc-lsb=8 / vui-timing-info / vui-hrd-info / slices=1 / no-opt-qp-pps / no-opt-ref-list-length-pps / no-multi-pass-opt-rps / scenecut-bias=0.05 / hist-threshold=0.03 / no-opt-cu-delta-qp / no-aq-motion / no-hdr10 / no-hdr10-opt / no-dhdr10-opt / no-idr-recovery-sei / analysis-reuse-level=0 / analysis-save-reuse-level=0 / analysis-load-reuse-level=0 / scale-factor=0 / refine-intra=0 / refine-inter=0 / refine-mv=1 / refine-ctu-distortion=0 / no-limit-sao / ctu-info=0 / no-lowpass-dct / refine-analysis-type=0 / copy-pic=1 / max-ausize-factor=1.0 / no-dynamic-refine / no-single-sei / no-hevc-aq / no-svt / no-field / qp-adaptation-range=1.00 / no-scenecut-aware-qpconformance-window-offsets / right=0 / bottom=0 / decoder-max-rate=0

Язык : German

Default : Да

Forced : Нет

Цветовой диапазон : Limited



Аудио

Идентификатор : 2

Формат : AC-3

Формат/Информация : Audio Coding 3

Коммерческое название : Dolby Digital

Идентификатор кодека : A_AC3

Продолжительность : 1 ч. 44 м.

Вид битрейта : Постоянный

Битрейт : 640 Кбит/сек

Каналы : 6 каналов

Channel layout : L R C LFE Ls Rs

Частота : 48,0 КГц

Частота кадров : 31,250 кадров/сек (1536 SPF)

Метод сжатия : С потерями

Размер потока : 479 Мбайт (6%)

Язык : Russian

Default : Да

Forced : Нет



Текст #1

Идентификатор : 3

Формат : UTF-8

Идентификатор кодека : S_TEXT/UTF8

Идентификатор кодека/Информация : UTF-8 Plain Text

Продолжительность : 1 ч. 29 м.

Битрейт : 1 бит/сек

Count of elements : 15

Размер потока : 1,07 Кбайт (0%)

Заголовок : Forced

Язык : Russian

Default : Да

Forced : Нет



Текст #2

Идентификатор : 4

Формат : UTF-8

Идентификатор кодека : S_TEXT/UTF8

Идентификатор кодека/Информация : UTF-8 Plain Text

Продолжительность : 1 ч. 40 м.

Битрейт : 69 бит/сек

Count of elements : 999

Размер потока : 50,8 Кбайт (0%)

Заголовок : Full

Язык : Russian

Default : Нет

Forced : Нет



Меню

00:00:00.000 : :00:00:00.000

00:04:09.458 : :00:04:09.458

00:11:51.000 : :00:11:51.000

00:19:54.083 : :00:19:54.083

00:27:33.000 : :00:27:33.000

00:33:59.792 : :00:33:59.792

00:38:04.917 : :00:38:04.917

00:45:04.625 : :00:45:04.625

00:55:43.125 : :00:55:43.125

01:05:46.542 : :01:05:46.542

01:14:01.792 : :01:14:01.792

01:16:34.917 : :01:16:34.917

01:22:24.250 : :01:22:24.250

01:28:49.042 : :01:28:49.042

01:36:09.333 : :01:36:09.333

01:41:21.917 : :01:41:21.917Скриншоты

Discussion

Comments 0

Post Your Comment

Files in this torrent

FILENAMESIZE
Калашников (2020) [GER Transfer] BDRip 1080p [HEVC] 10 bit rip_by_Siren_Head.mkv7.8 GB

Alternative Torrents for 'Калашников GER Transfer HEVC bit ripbySirenHead'.

There are no alternative torrents found.