Love And Monsters 2020 RU XviD WEB-DLRip-MediaBit

Torrent Details

Love and Monsters 2020 RU XviD WEB-DLRip-MediaBit
Love and Monsters 2020 RU XviD WEB-DLRip-MediaBit

NAME
Love and Monsters 2020 RU XviD WEB-DLRip-MediaBit.torrent
CATEGORY
Movies
INFOHASH
7a96dffde922b22d55a4d729b062d5759ef15102
SIZE
1.5 GB in 1 file
ADDED
Uploaded on 19-10-2020 by our crawler pet called "Spidey".
SWARM
48 seeders & 0 peers
RATING
No votes yet.

Please login to vote for this torrent.


Description

Информация о фильме

Название: Любовь и монстры

Оригинальное название: Love and Monsters

Год выхода: 2020

Жанр: Комедия, фантастика, боевик, приключения

Режиссер: Майкл Мэтьюз

В ролях: Дилан О Брайен, Джессика Хенвик, Майкл Рукер, Эллен Холлман, Мелани Занетти, Ариана Гринблатт, Амали Голден, Тэнди Райт, Тэсним Рок, Ларри Седар



О фильме: Спустя семь лет после нападения на человеческую расу ужасных монстров, Джоэль Доусон вместе с остальными выжившими прячется под землей от огромных существ, которые теперь чувствуют себя хозяевами на планете. Однажды парень ловит сигнал по радио и слышит голос девушки Эйми, в которую был влюблён ещё в старшей школе. Она укрылась в прибрежной колонии, расположенной в 80 милях от убежища Джоэля. Вопреки всякой логике, парень решает, что ему больше нечего делать под землей, и отправляется на поиски Эйми. На пути к заветной цели Джоэлю предстоит преодолеть множество опасностей и найти новых друзей, а также узнать много нового о чудовищах, захвативших планету...







Страна: Канада, США

Студия: 21 Laps Entertainment, Entertainment One, MTV Films

Продолжительность: 01:48:52

Перевод: Любительский многоголосый | @[email protected]



Файл

Кодек: XviD

Качество: WEB-DLRip

Видео: 1716 Кбит/с, 720x304, 23.976 кадр/с

Звук: AC3, 48 Гц, 192 Кбит/сек, 2 ch (L + R) | MVO | @[email protected]





MIОбщее

Полное имя : D:ТоррентыLove.and.Monsters.2020.RU.XviD.WEB-DLRip-MediaBit.avi

Формат : AVI

Формат/Информация : Audio Video Interleave

Профиль формата : OpenDML

Размер файла : 1,46 Гбайт

Продолжительность : 1 ч. 48 м.

Общий поток : 1 920 Кбит/сек

Название фильма : Love and Monsters (2020)

Программа кодирования : Lavf58.20.100



Видео

Идентификатор : 0

Формат : MPEG-4 Visual

Профиль формата : Advanced [email protected]

Настройки формата : BVOP1 / Custom Matrix

Параметр BVOP формата : 1

Параметр QPel формата : Нет

Параметр GMC формата : Без точки перехода

Параметр матрицы формата : Выборочная

Идентификатор кодека : XVID

Идентификатор кодека/Подсказка : XviD

Продолжительность : 1 ч. 48 м.

Битрейт : 1 716 Кбит/сек

Ширина : 720 пикселей

Высота : 304 пикселя

Соотношение сторон : 2,40:1

Частота кадров : 23,976 (24000/1001) кадра/сек

Цветовое пространство : YUV

Субдискретизация насыщенности : 4:2:0

Битовая глубина : 8 бит

Тип развёртки : Прогрессивная

Метод сжатия : С потерями

Бит/(Пиксели*Кадры) : 0.327

Размер потока : 1,30 Гбайт (89%)

Заголовок : MediaBit

Библиотека кодирования : XviD 67



Аудио

Идентификатор : 1

Формат : AC-3

Формат/Информация : Audio Coding 3

Коммерческое название : Dolby Digital

Идентификатор кодека : 2000

Продолжительность : 1 ч. 48 м.

Вид битрейта : Постоянный

Битрейт : 192 Кбит/сек

Каналы : 2 канала

Channel layout : L R

Частота : 48,0 КГц

Частота кадров : 31,250 кадров/сек (1536 SPF)

Битовая глубина : 16 бит

Метод сжатия : С потерями

Размер потока : 149 Мбайт (10%)

Выравнивание : Соединение по промежуткам

Продолжительность промежутка : 32 мс. (0,77 видеокадр)

Заголовок : MVO [@[email protected]] MediaBit

Service kind : Complete MainСкриншоты





Релиз от:

Discussion

Comments 0

Post Your Comment

Files in this torrent

FILENAMESIZE
Love.and.Monsters.2020.RU.XviD.WEB-DLRip-MediaBit.avi1.5 GB

Alternative Torrents for 'Love and Monsters RU DLRipMediaBit'.

TORRENT NAMEADDEDSIZESEEDSPEERSHEALTH
10/18/20202 GB2128378
10/18/2020999 MB1510192
8/3/20209 MB128148
10/17/20202.1 GB893196
10/26/20111 GB890189
4/3/2011999 MB888235
10/23/20122 GB803192
8/28/20201.3 GB69868
10/16/2020797 MB68571
10/28/20111.7 GB634128
11/23/20201.3 GB409110
9/28/2020321 MB40942
12/14/20172 GB39766
8/21/2020858 MB34037
11/12/20201.7 GB32810