Unhinged 2020 AMZN WEB-DL 2160p HDR SeleZen

Torrent Details

Unhinged 2020 AMZN WEB-DL 2160p HDR<span style=color:#fc9c6d> seleZen</span>
Unhinged 2020 AMZN WEB-DL 2160p HDR<span style=color:#fc9c6d> seleZen</span>

NAME
Unhinged 2020 AMZN WEB-DL 2160p HDR seleZen.torrent
CATEGORY
Movies
INFOHASH
b26a199166962032b9cbbf378ea6dbf6e8c68e9c
SIZE
10 GB in 1 file
ADDED
Uploaded on 20-10-2020 by our crawler pet called "Spidey".
SWARM
67 seeders & 5 peers
RATING
No votes yet.

Please login to vote for this torrent.


Description

Информация о фильме

Название: Неистовый

Оригинальное название: Unhinged

Год выхода: 2020

Жанр: Боевик, триллер

Режиссер: Деррик Борте

В ролях: Расселл Кроу, Джимми Симпсон, Карен Писториус, Гэбриел Бейтман, Остин П. МакКензи, Энн Мари Лейтон, Майкл Пападжон, Люси Фауст, Сильвия Грэйс Крим, Стивен Луис Граш







О фильме: Нет ничего опаснее человека, доведенного до точки кипения. Особенно, если жизнь обошлась с ним несправедливо и теперь ему нечего терять. Именно таким оказывается водитель автомобиля, с которым повздорила на дороге обычная мать-одиночка, не подозревая, что нажила себе безжалостного врага. Теперь он не остановится пока не преподаст страшный урок своей жертве и всем, кто ей дорог. У женщины и ее сына не остается другого выбора, кроме как попытаться выжить в этой набирающей скорость смертельной игре.



Страна: США

Студия: Burek Films, Ingenious, Solstice Studios

Продолжительность: 01:30:07

Перевод: Дублированный | iTunes



Качество: WEB-DL 2160p

Видео: 3840x2160 at 23.976 fps, MPEG-H HEVC HDR Video, 14800 kbps avg

Аудио #01: 48 kHz, AC3, 5.1, 384 Kbps | iTunes | RUS |

Аудио #02: 48 kHz, E-AC3, 5.1, 640 Kbps | Оригинал | ENG |

Субтитры: Русские (Full), английские, испанские







MIGeneral

Unique ID : 112267915885719476636930024787663260727 (0x5476039C0BD139259677E781B1EA0C37)

Complete name : D:Video111Unhinged.2020.AMZN.WEB-DL.2160p.HDR.seleZen.mkv

Format : Matroska

Format version : Version 4

File size : 9.97 GiB

Duration : 1 h 30 min

Overall bit rate : 15.8 Mb/s

Movie name : Unhinged 2020 from селезень

Encoded date : UTC 2020-10-20 18:12:57

Writing application : mkvmerge v40.0.0 ('Old Town Road + Pony') 64-bit

Writing library : libebml v1.3.9 + libmatroska v1.5.2



Video

ID : 1

Format : HEVC

Format/Info : High Efficiency Video Coding

Format profile : Main [email protected]@Main

Codec ID : V_MPEGH/ISO/HEVC

Duration : 1 h 30 min

Bit rate : 14.8 Mb/s

Width : 3 840 pixels

Height : 2 160 pixels

Display aspect ratio : 16:9

Frame rate mode : Constant

Frame rate : 23.976 (24000/1001) FPS

Color space : YUV

Chroma subsampling : 4:2:0 (Type 2)

Bit depth : 10 bits

Bits/(Pixel*Frame) : 0.074

Stream size : 9.32 GiB (94%)

Language : English

Default : Yes

Forced : No

Color range : Limited

Color primaries : BT.2020

Transfer characteristics : PQ

Matrix coefficients : BT.2020 non-constant



Audio #1

ID : 2

Format : AC-3

Format/Info : Audio Coding 3

Commercial name : Dolby Digital

Codec ID : A_AC3

Duration : 1 h 30 min

Bit rate mode : Constant

Bit rate : 384 kb/s

Channel(s) : 6 channels

Channel layout : L R C LFE Ls Rs

Sampling rate : 48.0 kHz

Frame rate : 31.250 FPS (1536 SPF)

Compression mode : Lossy

Stream size : 247 MiB (2%)

Title : iTunes

Language : Russian

Service kind : Complete Main

Default : Yes

Forced : Yes



Audio #2

ID : 3

Format : E-AC-3

Format/Info : Enhanced AC-3

Commercial name : Dolby Digital Plus

Codec ID : A_EAC3

Duration : 1 h 30 min

Bit rate mode : Constant

Bit rate : 640 kb/s

Channel(s) : 6 channels

Channel layout : L R C LFE Ls Rs

Sampling rate : 48.0 kHz

Frame rate : 31.250 FPS (1536 SPF)

Compression mode : Lossy

Stream size : 413 MiB (4%)

Title : Original

Language : English

Service kind : Complete Main

Default : No

Forced : No



Text #1

ID : 4

Format : UTF-8

Codec ID : S_TEXT/UTF8

Codec ID/Info : UTF-8 Plain Text

Duration : 1 h 17 min

Bit rate : 90 b/s

Count of elements : 1001

Stream size : 51.3 KiB (0%)

Title : Full

Language : Russian

Default : No

Forced : No



Text #2

ID : 5

Format : UTF-8

Codec ID : S_TEXT/UTF8

Codec ID/Info : UTF-8 Plain Text

Duration : 1 h 21 min

Bit rate : 61 b/s

Count of elements : 1190

Stream size : 36.3 KiB (0%)

Title : SDH

Language : English

Default : No

Forced : No



Text #3

ID : 6

Format : UTF-8

Codec ID : S_TEXT/UTF8

Codec ID/Info : UTF-8 Plain Text

Duration : 1 h 26 min

Bit rate : 47 b/s

Count of elements : 980

Stream size : 30.2 KiB (0%)

Language : Spanish

Default : No

Forced : No



Релиз: Присоединяйся к:



Discussion

Comments 0

Post Your Comment

Files in this torrent

FILENAMESIZE
Unhinged.2020.AMZN.WEB-DL.2160p.HDR.seleZen.mkv10 GB

Alternative Torrents for 'Unhinged HDR'.

TORRENT NAMEADDEDSIZESEEDSPEERSHEALTH
10/20/202010 GB675
10/26/20201.9 GB713
10/24/20209.6 GB512
Today50.7 GB39
Today60.3 GB28
11/3/20206.6 GB00