Майор (2013) BDRip 1080p [HEVC] 10 Bit Rip_by_Siren_Head

Torrent Details


Майор (2013) BDRip 1080p [HEVC] 10 bit rip_by_Siren_Head

NAME
Майор (2013) BDRip 1080p [HEVC] 10 bit rip_by_Siren_Head.torrent
CATEGORY
Movies
INFOHASH
dbde25f524ac3dbc432829d422fb44f4ea529ba2
SIZE
4.6 GB in 0 files
ADDED
Uploaded on 21-10-2020 by our crawler pet called "Spidey".
SWARM
1 seeders & 0 peers
RATING
No votes yet.

Please login to vote for this torrent.


Description

Название: Майор

Оригинальное название: Майор

Год выхода: 2013

Страна: Россия

Студия: «Bazelevs Distribution», ТПО «Рок»

Жанр: криминал, драма

Продолжительность: 01:39:21





Режиссер: Юрий Быков

В ролях: Денис Шведов, Ирина Низина, Юрий Быков, Дмитрий Куличков, Кирилл Полухин, Борис Невзоров, Илья Исаев, Владислав Толдыков, Евгений Кочетков, Павел Басов





Описание: В день долгожданных родов своей жены майор полиции Сергей Соболев мчится в роддом вне себя от счастья. На скользкой зимней дороге он насмерть сбивает семилетнего мальчика на глазах у несчастной матери. Превышение скорости, неосторожность и пешеходный переход — доказательства очевидны, как и нежелание молодого отца угодить за решетку. Майор использует свое служебное положение, чтобы оправдать себя… Сам того не желая, он запускает целую череду смертей, остановить которую решится слишком поздно.





Качество: BDRip-HEVC 1080p

Видео: HEVC/x.265, 1920x802, ~6041 Kbps, 10 bit

Аудио 01: AC3, 6 ch, 640 Kbps - Русский, Оригинал (Лицензия)

Субтитры: Отсутствуют

Навигация по главам: Есть











Релиз от: Siren_Head



Медиаинфо==================================================



x265 info: frame I: 933, Avg QP:16.30 kb/s: 14525.68

x265 info: frame P: 27516, Avg QP:17.53 kb/s: 9964.06

x265 info: frame B: 114619, Avg QP:19.89 kb/s: 5029.73



==================================================



Формат : Matroska

Версия формата : Version 4

Размер файла : 4,64 Гбайт

Продолжительность : 1 ч. 39 м.

Общий поток : 6 683 Кбит/сек

Название фильма : Майор (2013) rip_by_Siren_Head

Дата кодирования : UTC 2020-10-21 02:07:50

Программа кодирования : mkvmerge v51.0.0 ('I Wish') 64-bit

Библиотека кодирования : libebml v1.4.0 + libmatroska v1.6.2

Attachments : poster.jpg



Видео

Идентификатор : 1

Формат : HEVC

Формат/Информация : High Efficiency Video Coding

Профиль формата : Main [email protected]@High

Идентификатор кодека : V_MPEGH/ISO/HEVC

Продолжительность : 1 ч. 39 м.

Битрейт : 6 041 Кбит/сек

Ширина : 1 920 пикселей

Высота : 802 пикселя

Соотношение сторон : 2,40:1

Режим частоты кадров : Постоянный

Частота кадров : 24,000 кадра/сек

Цветовое пространство : YUV

Субдискретизация насыщенности : 4:2:0

Битовая глубина : 10 бит

Бит/(Пиксели*Кадры) : 0.163

Размер потока : 4,19 Гбайт (90%)

Библиотека кодирования : x265 3.4+20-g343c58ef6:[Windows][clang 10.0.1][64 bit] 10bit

Настройки программы : cpuid=1049583 / frame-threads=5 / numa-pools=4 / wpp / no-pmode / no-pme / no-psnr / no-ssim / log-level=3 / input-csp=1 / input-res=1920x802 / interlace=0 / total-frames=0 / level-idc=41 / high-tier=1 / uhd-bd=0 / ref=5 / allow-non-conformance / no-repeat-headers / annexb / no-aud / no-hrd / info / hash=0 / no-temporal-layers / open-gop / min-keyint=24 / keyint=240 / gop-lookahead=0 / bframes=9 / b-adapt=2 / b-pyramid / bframe-bias=0 / rc-lookahead=40 / lookahead-slices=5 / scenecut=40 / hist-scenecut=0 / radl=0 / no-splice / no-intra-refresh / ctu=32 / min-cu-size=8 / no-rect / no-amp / max-tu-size=32 / tu-inter-depth=4 / tu-intra-depth=4 / limit-tu=1 / rdoq-level=1 / dynamic-rd=0.00 / no-ssim-rd / signhide / no-tskip / nr-intra=0 / nr-inter=0 / no-constrained-intra / no-strong-intra-smoothing / max-merge=5 / limit-refs=1 / no-limit-modes / me=3 / subme=7 / merange=57 / temporal-mvp / no-frame-dup / no-hme / weightp / no-weightb / no-analyze-src-pics / deblock=-3:-3 / no-sao / no-sao-non-deblock / rd=3 / selective-sao=0 / early-skip / rskip / no-fast-intra / no-tskip-fast / no-cu-lossless / b-intra / no-splitrd-skip / rdpenalty=0 / psy-rd=2.00 / psy-rdoq=1.00 / no-rd-refine / no-lossless / cbqpoffs=0 / crqpoffs=0 / rc=crf / crf=21.0 / qcomp=0.60 / qpstep=4 / stats-write=0 / stats-read=0 / vbv-maxrate=50000 / vbv-bufsize=50000 / vbv-init=0.9 / crf-max=0.0 / crf-min=0.0 / ipratio=1.40 / pbratio=1.30 / aq-mode=3 / aq-strength=1.00 / no-cutree / zone-count=0 / no-strict-cbr / qg-size=32 / no-rc-grain / qpmax=69 / qpmin=0 / no-const-vbv / sar=1 / overscan=0 / videoformat=5 / range=0 / colorprim=2 / transfer=2 / colormatrix=2 / chromaloc=0 / display-window=0 / cll=0,0 / min-luma=0 / max-luma=1023 / log2-max-poc-lsb=8 / vui-timing-info / vui-hrd-info / slices=1 / no-opt-qp-pps / no-opt-ref-list-length-pps / no-multi-pass-opt-rps / scenecut-bias=0.05 / hist-threshold=0.03 / no-opt-cu-delta-qp / no-aq-motion / no-hdr10 / no-hdr10-opt / no-dhdr10-opt / no-idr-recovery-sei / analysis-reuse-level=0 / analysis-save-reuse-level=0 / analysis-load-reuse-level=0 / scale-factor=0 / refine-intra=0 / refine-inter=0 / refine-mv=1 / refine-ctu-distortion=0 / no-limit-sao / ctu-info=0 / no-lowpass-dct / refine-analysis-type=0 / copy-pic=1 / max-ausize-factor=1.0 / no-dynamic-refine / no-single-sei / no-hevc-aq / no-svt / no-field / qp-adaptation-range=1.00 / no-scenecut-aware-qpconformance-window-offsets / right=0 / bottom=0 / decoder-max-rate=0

Язык : Russian

Default : Да

Forced : Нет

Цветовой диапазон : Limited



Аудио

Идентификатор : 2

Формат : AC-3

Формат/Информация : Audio Coding 3

Коммерческое название : Dolby Digital

Идентификатор кодека : A_AC3

Продолжительность : 1 ч. 39 м.

Вид битрейта : Постоянный

Битрейт : 640 Кбит/сек

Каналы : 6 каналов

Channel layout : L R C LFE Ls Rs

Частота : 48,0 КГц

Частота кадров : 31,250 кадров/сек (1536 SPF)

Метод сжатия : С потерями

Размер потока : 455 Мбайт (10%)

Заголовок : Оригинал

Язык : Russian

Service kind : Complete Main

Default : Да

Forced : Нет



Меню

00:00:00.000 : :Chapter 1

00:00:41.000 : :Chapter 2

00:08:35.583 : :Chapter 3

00:23:31.875 : :Chapter 4

00:29:56.750 : :Chapter 5

00:44:46.083 : :Chapter 6

01:02:40.875 : :Chapter 7

01:12:17.666 : :Chapter 8

01:17:41.958 : :Chapter 9Скриншоты

Discussion

Comments 0

Post Your Comment

Torrent Files (Unavailable)

Please check back later to get a list of all files included in this torrent.

Alternative Torrents for 'Майор HEVC bit ripbySirenHead'.

There are no alternative torrents found.