Love And Monsters 2020 720p AMZN WEB-DL ExKinoRay

Torrent Details

Love and Monsters 2020 720p AMZN WEB-DL<span style=color:#fc9c6d> ExKinoRay</span>
Love and Monsters 2020 720p AMZN WEB-DL<span style=color:#fc9c6d> ExKinoRay</span>

NAME
Love and Monsters 2020 720p AMZN WEB-DL ExKinoRay.torrent
CATEGORY
Movies
INFOHASH
de2939db6c1b4126481cb9951672e0e79809dff0
SIZE
3.4 GB in 1 file
ADDED
Uploaded on 21-10-2020 by our crawler pet called "Spidey".
SWARM
203 seeders & 7 peers
RATING
No votes yet.

Please login to vote for this torrent.


Description

Название: Любовь и монстры

Оригинальное название: Love and Monsters

Год выхода: 2020

Жанр: Комедия, фантастика, боевик, приключения

Режиссер: Майкл Мэтьюз

В ролях: Дилан О Брайен, Джессика Хенвик, Майкл Рукер, Эллен Холлман, Мелани Занетти, Ариана Гринблатт, Амали Голден, Тэнди Райт, Тэсним Рок, Ларри Седар



О фильме: Спустя семь лет после нападения на человеческую расу ужасных монстров, Джоэль Доусон вместе с остальными выжившими прячется под землей от огромных существ, которые теперь чувствуют себя хозяевами на планете. Однажды парень ловит сигнал по радио и слышит голос девушки Эйми, в которую был влюблён ещё в старшей школе. Она укрылась в прибрежной колонии, расположенной в 80 милях от убежища Джоэля. Вопреки всякой логике, парень решает, что ему больше нечего делать под землей, и отправляется на поиски Эйми. На пути к заветной цели Джоэлю предстоит преодолеть множество опасностей и найти новых друзей, а также узнать много нового о чудовищах, захвативших планету...







Страна: Канада, США

Студия: 21 Laps Entertainment, Entertainment One, MTV Films

Продолжительность: 01:48:52

Перевод: Профессиональный (многоголосый, закадровый) | HDRezka Studio



Формат: MKV

Качество: WEB-DL 720p

Видео: MPEG-4 AVC, 1248x520 (2.40:1), 23.976 fps, 2915 Kbps, 0.187 bit/pixel

Аудио #01: 48 kHz, AC3, 5.1, 448 Kbps | MVO | RUS |

Аудио #02: 48 kHz, AC3, 5.1, 384 Kbps | MVO | UKR

Аудио #03: 48 kHz, E-AC3, 5.1, 640 Kbps | Оригинал | ENG |

Субтитры: Русские (форс.), украинские (форс.), английские





ОтчетМедиаИнфоGeneral

Unique ID : 224071612929201243529473806700397233346 (0xA8929F768DF999B39AB13E1E8DE484C2)

Complete name : G:Love.and.Monsters.2020.720p.AMZN.WEB-DL.ExKinoRay.mkv

Format : Matroska

Format version : Version 2

File size : 3.40 GiB

Duration : 1 h 48 min

Overall bit rate : 4 477 kb/s

Movie name : Love and Monsters 2020 from ExKinoRay

Encoded date : UTC 2020-10-21 04:02:43

Writing application : mkvmerge v5.6.0 ('Kenya Kane') built on May 27 2012 16:44:04

Writing library : libebml v1.2.3 + libmatroska v1.3.0



Video

ID : 1

Format : AVC

Format/Info : Advanced Video Codec

Format profile : [email protected]

Format settings, CABAC : Yes

Format settings, ReFrames : 4 frames

Codec ID : V_MPEG4/ISO/AVC

Duration : 1 h 48 min

Bit rate mode : Constant

Bit rate : 2 915 kb/s

Nominal bit rate : 4 000 kb/s

Width : 1 248 pixels

Height : 520 pixels

Display aspect ratio : 2.40:1

Frame rate mode : Constant

Frame rate : 23.976 (24000/1001) FPS

Color space : YUV

Chroma subsampling : 4:2:0

Bit depth : 8 bits

Scan type : Progressive

Bits/(Pixel*Frame) : 0.187

Stream size : 2.22 GiB (65%)

Default : Yes

Forced : No

Color range : Limited

Color primaries : BT.709

Transfer characteristics : BT.709

Matrix coefficients : BT.709



Audio #1

ID : 2

Format : AC-3

Format/Info : Audio Coding 3

Mode extension : CM (complete main)

Format settings, Endianness : Big

Codec ID : A_AC3

Duration : 1 h 48 min

Bit rate mode : Constant

Bit rate : 448 kb/s

Channel(s) : 6 channels

Channel positions : Front: L C R, Side: L R, LFE

Sampling rate : 48.0 kHz

Frame rate : 31.250 FPS (1536 spf)

Compression mode : Lossy

Stream size : 349 MiB (10%)

Title : MVO (HDrezka Studio)

Language : Russian

Default : Yes

Forced : No



Audio #2

ID : 3

Format : AC-3

Format/Info : Audio Coding 3

Mode extension : CM (complete main)

Format settings, Endianness : Big

Codec ID : A_AC3

Duration : 1 h 48 min

Bit rate mode : Constant

Bit rate : 384 kb/s

Channel(s) : 6 channels

Channel positions : Front: L C R, Side: L R, LFE

Sampling rate : 48.0 kHz

Frame rate : 31.250 FPS (1536 spf)

Compression mode : Lossy

Stream size : 299 MiB (9%)

Title : MVO (HDrezka Studio)

Language : Ukrainian

Default : No

Forced : No



Audio #3

ID : 4

Format : E-AC-3

Format/Info : Audio Coding 3

Format settings, Endianness : Big

Codec ID : A_EAC3

Duration : 1 h 48 min

Bit rate mode : Constant

Bit rate : 640 kb/s

Channel(s) : 6 channels

Channel positions : Front: L C R, Side: L R, LFE

Sampling rate : 48.0 kHz

Frame rate : 187.500 FPS (256 spf)

Compression mode : Lossy

Stream size : 498 MiB (14%)

Language : English

Default : No

Forced : No



Text #1

ID : 5

Format : UTF-8

Codec ID : S_TEXT/UTF8

Codec ID/Info : UTF-8 Plain Text

Title : Forced

Language : Russian

Default : Yes

Forced : No



Text #2

ID : 6

Format : UTF-8

Codec ID : S_TEXT/UTF8

Codec ID/Info : UTF-8 Plain Text

Title : forced

Language : Ukrainian

Default : No

Forced : No



Text #3

ID : 7

Format : UTF-8

Codec ID : S_TEXT/UTF8

Codec ID/Info : UTF-8 Plain Text

Language : English

Default : No

Forced : No























Релиз от:



Автор релиза:

Discussion

Comments 0

Post Your Comment

Files in this torrent

FILENAMESIZE
Love.and.Monsters.2020.720p.AMZN.WEB-DL.ExKinoRay.mkv3.4 GB

Alternative Torrents for 'Love and Monsters'.

TORRENT NAMEADDEDSIZESEEDSPEERSHEALTH
10/18/20202 GB1920336
10/18/2020999 MB1253195
10/17/20202.1 GB663160
10/16/2020797 MB61355
10/16/20201.5 GB30127
10/21/20203.4 GB2037
10/21/20201.5 GB1783
10/17/20201.5 GB11535
10/16/20204.7 GB1059
10/21/20206.8 GB604
10/21/20202.4 GB552
10/17/20204.7 GB557
10/19/20201.5 GB490
10/19/20206.3 GB471
10/23/20201.4 GB330