Love And Monsters 2020 AMZN WEB-DL 1080p

Torrent Details

Love and Monsters 2020 AMZN WEB-DL 1080p
Love and Monsters 2020 AMZN WEB-DL 1080p

NAME
Love and Monsters 2020 AMZN WEB-DL 1080p.torrent
CATEGORY
Movies
INFOHASH
95778db163798053d03007af27a659c39302d447
SIZE
6.8 GB in 1 file
ADDED
Uploaded on 21-10-2020 by our crawler pet called "Spidey".
SWARM
60 seeders & 4 peers
RATING
No votes yet.

Please login to vote for this torrent.


Description

Информация о фильме

Название: Любовь и монстры

Оригинальное название: Love and Monsters

Год выхода: 2020

Жанр: Комедия, фантастика, боевик, приключения

Режиссер: Майкл Мэтьюз

В ролях: Дилан О Брайен, Джессика Хенвик, Майкл Рукер, Эллен Холлман, Мелани Занетти, Ариана Гринблатт, Амали Голден, Тэнди Райт, Тэсним Рок, Ларри Седар



О фильме:

Спустя семь лет после нападения на человеческую расу ужасных монстров, Джоэль Доусон вместе с остальными выжившими прячется под землей от огромных существ, которые теперь чувствуют себя хозяевами на планете. Однажды парень ловит сигнал по радио и слышит голос девушки Эйми, в которую был влюблён ещё в старшей школе. Она укрылась в прибрежной колонии, расположенной в 80 милях от убежища Джоэля. Вопреки всякой логике, парень решает, что ему больше нечего делать под землей, и отправляется на поиски Эйми. На пути к заветной цели Джоэлю предстоит преодолеть множество опасностей и найти новых друзей, а также узнать много нового о чудовищах, захвативших планету...









Страна: Канада, США

Студия: 21 Laps Entertainment, Entertainment One, MTV Films

Продолжительность: 01:48:52

Перевод: Профессиональный многоголосый | HDRezka Studio

*** Релиз mike7025



Файл

Кодек: AVC

Качество: WEB-DL 1080p | AMZN

Видео: MPEG-4 AVC, 7443 Kбит/с, 1920x800, 23.976 кадр/с

Аудио #1: Русский (АС3, 6 ch, 448 Кбит/с, 48.0 KHz) Профессиональный (многоголосый, закадровый) HDRezka Studio

Аудио #2: Украинский (АС3, 6 ch, 384 Кбит/с, 48.0 KHz) Профессиональный (многоголосый, закадровый) HDRezka Studio

Аудио #3: Английский (E-АС3, 6 ch, 640 Кбит/с, 48.0 KHz)

Субтитры: Русские (forced), украинские (forced), английские

► Без Рекламы!

MediaInfo Источник: Love.and.Monsters.2020.1080p.AMZN.WEB-DL.DDP5.1.x264-NTG

General

Unique ID : 95885454328958532075375748478910143616 (0x4822DDE4CAA1471A610E704E1F211C80)

Complete name : Love.and.Monsters.2020.AMZN.WEB-DL.1080p.mkv

Format : Matroska

Format version : Version 4

File size : 6.78 GiB

Duration : 1 h 48 min

Overall bit rate : 8 918 kb/s

Encoded date : UTC 2020-10-21 01:34:14

Writing application : mkvmerge v20.0.0 ('I Am The Sun') 64-bit

Writing library : libebml v1.3.5 + libmatroska v1.4.8



Video

ID : 1

Format : AVC

Format/Info : Advanced Video Codec

Format profile : [email protected]

Format settings : CABAC / 4 Ref Frames

Format settings, CABAC : Yes

Format settings, Reference fra : 4 frames

Codec ID : V_MPEG4/ISO/AVC

Duration : 1 h 48 min

Bit rate mode : Constant

Bit rate : 7 443 kb/s

Nominal bit rate : 10 000 kb/s

Width : 1 920 pixels

Height : 800 pixels

Display aspect ratio : 2.40:1

Frame rate mode : Constant

Frame rate : 23.976 (24000/1001) FPS

Color space : YUV

Chroma subsampling : 4:2:0

Bit depth : 8 bits

Scan type : Progressive

Bits/(Pixel*Frame) : 0.202

Stream size : 5.66 GiB (83%)

Language : English

Default : Yes

Forced : No

Color range : Limited

Color primaries : BT.709

Transfer characteristics : BT.709

Matrix coefficients : BT.709



Audio #1

ID : 2

Format : AC-3

Format/Info : Audio Coding 3

Commercial name : Dolby Digital

Codec ID : A_AC3

Duration : 1 h 48 min

Bit rate mode : Constant

Bit rate : 448 kb/s

Channel(s) : 6 channels

Channel layout : L R C LFE Ls Rs

Sampling rate : 48.0 kHz

Frame rate : 31.250 FPS (1536 SPF)

Compression mode : Lossy

Stream size : 349 MiB (5%)

Title : MVO HDRezka Studio

Language : Russian

Service kind : Complete Main

Default : Yes

Forced : No



Audio #2

ID : 3

Format : AC-3

Format/Info : Audio Coding 3

Commercial name : Dolby Digital

Codec ID : A_AC3

Duration : 1 h 48 min

Bit rate mode : Constant

Bit rate : 384 kb/s

Channel(s) : 6 channels

Channel layout : L R C LFE Ls Rs

Sampling rate : 48.0 kHz

Frame rate : 31.250 FPS (1536 SPF)

Compression mode : Lossy

Stream size : 299 MiB (4%)

Title : MVO HDRezka Studio

Language : Ukrainian

Service kind : Complete Main

Default : No

Forced : No



Audio #3

ID : 4

Format : E-AC-3

Format/Info : Enhanced AC-3

Commercial name : Dolby Digital Plus

Codec ID : A_EAC3

Duration : 1 h 48 min

Bit rate mode : Constant

Bit rate : 640 kb/s

Channel(s) : 6 channels

Channel layout : L R C LFE Ls Rs

Sampling rate : 48.0 kHz

Frame rate : 31.250 FPS (1536 SPF)

Compression mode : Lossy

Stream size : 498 MiB (7%)

Language : English

Service kind : Complete Main

Default : No

Forced : No



Text #1

ID : 5

Format : UTF-8

Codec ID : S_TEXT/UTF8

Codec ID/Info : UTF-8 Plain Text

Duration : 1 h 40 min

Bit rate : 3 b/s

Count of elements : 51

Stream size : 2.78 KiB (0%)

Title : forced

Language : Russian

Default : Yes

Forced : No



Text #2

ID : 6

Format : UTF-8

Codec ID : S_TEXT/UTF8

Codec ID/Info : UTF-8 Plain Text

Duration : 1 h 42 min

Bit rate : 2 b/s

Count of elements : 42

Stream size : 2.11 KiB (0%)

Title : forced

Language : Ukrainian

Default : No

Forced : No



Text #3

ID : 7

Format : UTF-8

Codec ID : S_TEXT/UTF8

Codec ID/Info : UTF-8 Plain Text

Duration : 1 h 42 min

Bit rate : 64 b/s

Count of elements : 1479

Stream size : 48.5 KiB (0%)

Language : English

Default : No

Forced : No

Скриншоты

Discussion

Comments 0

Post Your Comment

Files in this torrent

FILENAMESIZE
Love.and.Monsters.2020.AMZN.WEB-DL.1080p.mkv6.8 GB

Alternative Torrents for 'Love and Monsters'.

TORRENT NAMEADDEDSIZESEEDSPEERSHEALTH
10/18/20202 GB1920336
10/18/2020999 MB1253195
10/17/20202.1 GB663160
10/16/2020797 MB61355
10/16/20201.5 GB30127
10/21/20203.4 GB2037
10/21/20201.5 GB1783
10/17/20201.5 GB11535
10/16/20204.7 GB1059
10/21/20206.8 GB604
10/21/20202.4 GB552
10/17/20204.7 GB557
10/19/20201.5 GB490
10/19/20206.3 GB471
10/23/20201.4 GB330