Comedy Couple (2020) Hindi 720p WEBRip X264 AAC ESub

Torrent Details

Comedy Couple (2020) Hindi 720p WEBRip x264 AAC  ESub
Comedy Couple (2020) Hindi 720p WEBRip x264 AAC  ESub

NAME
Comedy Couple (2020) Hindi 720p WEBRip x264 AAC ESub.torrent
CATEGORY
Movies
INFOHASH
299904fc9fef31fba9e0ffc16b0dc05b6f568ae0
SIZE
759 MB in 1 file
ADDED
Uploaded on 21-10-2020 by our crawler pet called "Spidey".
SWARM
0 seeders & 0 peers
RATING
No votes yet.

Please login to vote for this torrent.


Description

Comedy Couple (2020):
A story about two comedian couples and the up and downs between their parternship.

Director: Nachiket Samant

Stars: Shweta Basu Prasad, Saqib Saleem, Rajesh Tailang.

Format : Matroska
Format version : Version 4
File size : 759 MiB
Duration : 1 h 57 min
Overall bit rate : 906 kb/s

Video
ID : 1
Format : AVC
Format/Info : Advanced Video Codec
Format profile : [email protected]
Format settings : CABAC / 4 Ref Frames
Format settings, CABAC : Yes
Format settings, Reference frames : 4 frames
Codec ID : V_MPEG4/ISO/AVC
Duration : 1 h 57 min
Bit rate : 840 kb/s
Width : 1 280 pixels
Height : 546 pixels
Display aspect ratio : 2.35:1
Frame rate mode : Constant
Frame rate : 25.000 FPS
Color space : YUV
Chroma subsampling : 4:2:0
Bit depth : 8 bits
Scan type : Progressive
Bits/(Pixel*Frame) : 0.048
Stream size : 692 MiB (91%)

Audio
ID : 2
Format : AAC LC
Format/Info : Advanced Audio Codec Low Complexity
Codec ID : A_AAC-2
Duration : 1 h 57 min
Bit rate : 77.6 kb/s
Channel(s) : 2 channels
Channel layout : L R
Sampling rate : 44.1 kHz
Frame rate : 43.066 FPS (1024 SPF)
Compression mode : Lossy
Stream size : 65.0 MiB (9%)
Language : Hindi
Default : Yes
Forced : No

Text
ID : 3
Format : UTF-8
Codec ID : S_TEXT/UTF8
Codec ID/Info : UTF-8 Plain Text
Duration : 1 h 56 min
Bit rate : 64 b/s
Count of elements : 1755
Stream size : 55.3 KiB (0%)
Language : English
Default : Yes
Forced : No

Discussion

Comments 0

Post Your Comment

Files in this torrent

FILENAMESIZE
Comedy Couple (2020) Hindi 720p WEBRip x264 AAC. ESub.mkv759 MB

Alternative Torrents for 'Comedy Couple Hindi AAC ESub'.

TORRENT NAMEADDEDSIZESEEDSPEERSHEALTH
10/22/20201 GB00
10/22/2020523 MB00
10/21/2020759 MB00