Love And Monsters 2020 HDR WEB-DL 2160p W

Torrent Details

Love and Monsters 2020 HDR WEB-DL 2160p W
Love and Monsters 2020 HDR WEB-DL 2160p W

NAME
Love and Monsters 2020 HDR WEB-DL 2160p W.torrent
CATEGORY
Movies
INFOHASH
6242fe10cd109c649fb6a312f67f0808e87ce16d
SIZE
12.5 GB in 1 file
ADDED
Uploaded on 21-10-2020 by our crawler pet called "Spidey".
SWARM
10 seeders & 10 peers
RATING
No votes yet.

Please login to vote for this torrent.


Description

Информация о фильме

Название: Любовь и монстры

Оригинальное название: Love and Monsters

Год выхода: 2020

Жанр: Комедия, фантастика, боевик, приключения

Режиссер: Майкл Мэтьюз

В ролях: Дилан О`Брайэн, Джессика Хенвик, Майкл Рукер, Дэниэл Юинг, Ариана Гринблатт, Эллен Холлман, Пачаро Мзембе, Сени Прити, Амали Голден



О фильме:

Семь лет назад человечество взорвало подлетавший к Земле астероид, но после этого столкнулось с последствиями - некоторые земные обитатели мутировали в гигантских монстров. Через год население Земли сократилось на 95%. У Джоэла погибли родители, и с тех пор он в компании таких же выживших обитает в подземном бункере. Недавно он поймал радиосигнал другой колонии, где живет его подростковая любовь Эйми, и теперь решил до неё добраться. И это будет непросто, ведь у Джоэла нет никаких навыков выживания, и более того - при виде монстров он впадает в оцепенение.







Страна: Канада, США

Студия: Paramount Pictures, 21 Laps Entertainment, Entertainment One

Продолжительность: 01:48:52

Перевод: Профессиональный многоголосый закадровый (HDRezka Studio)



Файл

Качество: WEB-DL-HEVC 2160p | 4K | HDR | P

Видео: HEVC/H.265, 3840x2160, ~15 Мbps, 23.976 fps

Звук:

Аудио 1: AC3, 6 ch, 448 Kbps - Русский

Аудио 2: AC3, 6 ch, 384 Kbps - Украинский

Аудио 3: E-AC3, 6 ch, 640 Kbps - Английский

Субтитры: Русские (Forced), украинские (Forced), английские (Full, SDH)



Mediainfo Общее

Уникальный идентификатор : 171016145948907430231279568700694505869 (0x80A882FB35EB3AFD70069A2B4E32A98D)

Полное имя : Love and Monsters.2020.HDR.WEB-DL.2160p.W.mkv

Формат : Matroska

Версия формата : Version 4

Размер файла : 12,5 Гбайт

Продолжительность : 1 ч. 48 м.

Общий поток : 16,5 Мбит/сек

Название фильма : Love and Monsters.2020.HDR.WEB-DL.2160p.W

Дата кодирования : UTC 2020-10-21 15:47:54

Программа кодирования : mkvmerge v23.0.0 ('The Bride Said No') 64-bit

Библиотека кодирования : libebml v1.3.6 + libmatroska v1.4.9



Видео

Идентификатор : 1

Формат : HEVC

Формат/Информация : High Efficiency Video Coding

Профиль формата : Main [email protected]@Main

Идентификатор кодека : V_MPEGH/ISO/HEVC

Продолжительность : 1 ч. 48 м.

Битрейт : 15,0 Мбит/сек

Ширина : 3 840 пикселей

Высота : 2 160 пикселей

Соотношение сторон : 16:9

Режим частоты кадров : Постоянный

Частота кадров : 23,976 (24000/1001) кадра/сек

Цветовое пространство : YUV

Субдискретизация насыщенности : 4:2:0 (Type 2)

Битовая глубина : 10 бит

Бит/(Пиксели*Кадры) : 0.075

Размер потока : 11,4 Гбайт (91%)

Язык : English

Default : Да

Forced : Нет

Цветовой диапазон : Limited

Основные цвета : BT.2020

Характеристики трансфера : PQ

Коэффициенты матрицы : BT.2020 non-constant

Maximum Content Light Level : 1000 cd/m2

Maximum Frame-Average Light Level : 387 cd/m2



Аудио #1

Идентификатор : 2

Формат : AC-3

Формат/Информация : Audio Coding 3

Коммерческое название : Dolby Digital

Идентификатор кодека : A_AC3

Продолжительность : 1 ч. 48 м.

Вид битрейта : Постоянный

Битрейт : 448 Кбит/сек

Каналы : 6 каналов

Channel layout : L R C LFE Ls Rs

Частота : 48,0 КГц

Частота кадров : 31,250 кадров/сек (1536 SPF)

Метод сжатия : С потерями

Размер потока : 349 Мбайт (3%)

Заголовок : MVO (HDrezka Studio)

Язык : Russian

Service kind : Complete Main

Default : Да

Forced : Нет



Аудио #2

Идентификатор : 3

Формат : AC-3

Формат/Информация : Audio Coding 3

Коммерческое название : Dolby Digital

Идентификатор кодека : A_AC3

Продолжительность : 1 ч. 48 м.

Вид битрейта : Постоянный

Битрейт : 384 Кбит/сек

Каналы : 6 каналов

Channel layout : L R C LFE Ls Rs

Частота : 48,0 КГц

Частота кадров : 31,250 кадров/сек (1536 SPF)

Метод сжатия : С потерями

Размер потока : 299 Мбайт (2%)

Заголовок : MVO (HDrezka Studio)

Язык : Ukrainian

Service kind : Complete Main

Default : Нет

Forced : Нет



Аудио #3

Идентификатор : 4

Формат : E-AC-3

Формат/Информация : Enhanced AC-3

Коммерческое название : Dolby Digital Plus

Идентификатор кодека : A_EAC3

Продолжительность : 1 ч. 48 м.

Вид битрейта : Постоянный

Битрейт : 640 Кбит/сек

Каналы : 6 каналов

Channel layout : L R C LFE Ls Rs

Частота : 48,0 КГц

Частота кадров : 31,250 кадров/сек (1536 SPF)

Метод сжатия : С потерями

Размер потока : 498 Мбайт (4%)

Язык : English

Service kind : Complete Main

Default : Нет

Forced : Нет



Текст #1

Идентификатор : 5

Формат : UTF-8

Идентификатор кодека : S_TEXT/UTF8

Идентификатор кодека/Информация : UTF-8 Plain Text

Продолжительность : 1 ч. 40 м.

Битрейт : 3 бит/сек

Count of elements : 51

Размер потока : 2,88 Кбайт (0%)

Заголовок : Forced

Язык : Russian

Default : Да

Forced : Нет



Текст #2

Идентификатор : 6

Формат : UTF-8

Идентификатор кодека : S_TEXT/UTF8

Идентификатор кодека/Информация : UTF-8 Plain Text

Продолжительность : 1 ч. 42 м.

Битрейт : 2 бит/сек

Count of elements : 42

Размер потока : 2,03 Кбайт (0%)

Заголовок : Forced

Язык : Ukrainian

Default : Нет

Forced : Нет



Текст #3

Идентификатор : 7

Формат : UTF-8

Идентификатор кодека : S_TEXT/UTF8

Идентификатор кодека/Информация : UTF-8 Plain Text

Продолжительность : 1 ч. 41 м.

Битрейт : 64 бит/сек

Count of elements : 1477

Размер потока : 48,4 Кбайт (0%)

Заголовок : Full

Язык : English

Default : Нет

Forced : Нет



Текст #4

Идентификатор : 8

Формат : UTF-8

Идентификатор кодека : S_TEXT/UTF8

Идентификатор кодека/Информация : UTF-8 Plain Text

Продолжительность : 1 ч. 42 м.

Битрейт : 73 бит/сек

Count of elements : 1711

Размер потока : 55,3 Кбайт (0%)

Заголовок : SDH

Язык : English

Default : Нет

Forced : Нет

Скриншоты

Discussion

Comments 0

Post Your Comment

Files in this torrent

FILENAMESIZE
Love and Monsters.2020.HDR.WEB-DL.2160p.W.mkv12.5 GB

Alternative Torrents for 'Love and Monsters HDR'.

TORRENT NAMEADDEDSIZESEEDSPEERSHEALTH
10/21/202012.5 GB1010
10/18/202011.7 GB239
10/24/20202.9 GB18
11/3/20208 GB01