Irresistible (2020) ITA-ENG Ac3 5.1 BDRip 1080p H264 [ArMor]

Torrent Details

Irresistible (2020) ITA-ENG Ac3 5.1 BDRip 1080p H264 <span style=color:#fc9c6d>[ArMor]</span>
Irresistible (2020) ITA-ENG Ac3 5.1 BDRip 1080p H264 <span style=color:#fc9c6d>[ArMor]</span>

NAME
Irresistible (2020) ITA-ENG Ac3 5.1 BDRip 1080p H264 [ArMor].torrent
CATEGORY
Movies
INFOHASH
b60a816ce689ae635c8eec89ffe8be24dbf73fbc
SIZE
3.7 GB in 4 files
ADDED
Uploaded on 22-10-2020 by our crawler pet called "Spidey".
SWARM
6 seeders & 1 peers
RATING
No votes yet.

Please login to vote for this torrent.


Description











Regista: Jon Stewart

Genere: Commedia

Anno: 2020

Paese: USA

Data di uscita: N.D.







Steve Carell, Chris Cooper, Mackenzie Davis, Rose Byrne, Natasha Lyonne, Topher Grace, Debra Messing, Will Sasso, Brent Sexton, Eve Gordon, Jen Nikolaisen, Andrea Frankle







Irresistible, film diretto da Jon Stewart, è la storia di Gary Zimmer (Steve Carell), un consulente politico del Partito Democratico che decide di aiutare un ex militare (Chris Cooper), ormai in pensione, a candidarsi come sindaco di una piccola cittadina conservatrice del Winsconsin e vincere le elezioni. Ma a opporsi a Gary arriva una donna (Rose Byrne), incaricata dai repubblicani di aggiudicarsi la maggioranza dei voti. Per Zimmer le elezioni si trasformano così in una sfida personale e i due si daranno battaglia in un modo alquanto ilare, pronti a perdere qualsiasi tipo di controllo pur di vincere.







A Democratic strategist helps a retired veteran run for mayor in a small, conservative Midwest town.

























General

Unique ID                                : 229492321028744899253243863625415291379 (0xACA69D01BA6547B1B8645A9DA03871F3)

Complete name                            : Irresistible (2020) ITA-ENG Ac3 5.1 BDRip 1080p H264 [ArMor].mkv

Format                                   : Matroska

Format version                           : Version 4

File size                                : 3.69 GiB

Duration                                 : 1 h 41 min

Overall bit rate                         : 5 196 kb/s

Encoded date                             : UTC 2020-10-21 12:07:59

Writing application                      : mkvmerge v15.0.0 ('Duel with the Devil') 64-bit

Writing library                          : libebml v1.3.5 + libmatroska v1.4.5 / Lavf58.29.100



Video

ID                                       : 1

Format                                   : AVC

Format/Info                              : Advanced Video Codec

Format profile                           : [email protected]

Format settings                          : CABAC / 4 Ref Frames

Format settings, CABAC                   : Yes

Format settings, Reference frames        : 4 frames

Codec ID                                 : V_MPEG4/ISO/AVC

Duration                                 : 1 h 41 min

Bit rate                                 : 4 298 kb/s

Width                                    : 1 800 pixels

Height                                   : 1 080 pixels

Display aspect ratio                     : 5:3

Frame rate mode                          : Constant

Frame rate                               : 23.976 (24000/1001) FPS

Color space                              : YUV

Chroma subsampling                       : 4:2:0

Bit depth                                : 8 bits

Scan type                                : Progressive

Bits/(Pixel*Frame)                       : 0.092

Stream size                              : 3.05 GiB (83%)

Writing library                          : x264 core 157 r2935 545de2f

Encoding settings                        : cabac=1 / ref=2 / deblock=1:0:0 / analyse=0x1:0x111 / me=hex / subme=6 / psy=1 / psy_rd=1.00:0.00 / mixed_ref=1 / me_range=16 / chroma_me=1 / trellis=1 / 8x8dct=0 / cqm=0 / deadzone=21,11 / fast_pskip=1 / chroma_qp_offset=-2 / threads=18 / lookahead_threads=3 / sliced_threads=0 / nr=0 / decimate=1 / interlaced=0 / bluray_compat=0 / constrained_intra=0 / bframes=3 / b_pyramid=2 / b_adapt=1 / b_bias=0 / direct=1 / weightb=1 / open_gop=0 / weightp=1 / keyint=240 / keyint_min=24 / scenecut=40 / intra_refresh=0 / rc_lookahead=30 / rc=crf / mbtree=1 / crf=20.0 / qcomp=0.60 / qpmin=0 / qpmax=69 / qpstep=4 / vbv_maxrate=20000 / vbv_bufsize=25000 / crf_max=0.0 / nal_hrd=none / filler=0 / ip_ratio=1.40 / aq=1:1.00

Default                                  : Yes

Forced                                   : No

Color range                              : Limited

Color primaries                          : BT.709

Transfer characteristics                 : BT.709

Matrix coefficients                      : BT.709



Audio #1

ID                                       : 2

Format                                   : AC-3

Format/Info                              : Audio Coding 3

Commercial name                          : Dolby Digital

Codec ID                                 : A_AC3

Duration                                 : 1 h 41 min

Bit rate mode                            : Constant

Bit rate                                 : 448 kb/s

Channel(s)                               : 6 channels

Channel layout                           : L R C LFE Ls Rs

Sampling rate                            : 48.0 kHz

Frame rate                               : 31.250 FPS (1536 SPF)

Compression mode                         : Lossy

Stream size                              : 326 MiB (9%)

Title                                    : WEBDL

Language                                 : Italian

Service kind                             : Complete Main

Default                                  : Yes

Forced                                   : No



Audio #2

ID                                       : 3

Format                                   : AC-3

Format/Info                              : Audio Coding 3

Commercial name                          : Dolby Digital

Codec ID                                 : A_AC3

Duration                                 : 1 h 41 min

Bit rate mode                            : Constant

Bit rate                                 : 448 kb/s

Channel(s)                               : 6 channels

Channel layout                           : L R C LFE Ls Rs

Sampling rate                            : 48.0 kHz

Frame rate                               : 31.250 FPS (1536 SPF)

Compression mode                         : Lossy

Stream size                              : 326 MiB (9%)

Title                                    : DTS

Language                                 : English

Service kind                             : Complete Main

Default                                  : No

Forced                                   : No

Discussion

Comments 0

Post Your Comment

Files in this torrent

FILENAMESIZE
Irresistible (2020) ITA-ENG Ac3 5.1 BDRip 1080p H264 [ArMor].mkv3.7 GB
Irresistible.2020.ITA-ENG.Bluray.1080p_ita.srt123 KB
Irresistible.2020.ITA-ENG.Bluray.1080p_ita_forced.srt3.4 KB
sjhwry45q336ui78.jpg98.8 KB

Alternative Torrents for 'Irresistible ENG'.

TORRENT NAMEADDEDSIZESEEDSPEERSHEALTH
10/21/20202.5 GB453
10/22/20203.7 GB61
7/14/2020746 MB10
8/23/20202.2 GB03