3022 2019 RU ENG X264 BDRip-1080p-MediaBit

Torrent Details

3022 2019 RU ENG x264 BDRip-1080p-MediaBit
3022 2019 RU ENG x264 BDRip-1080p-MediaBit

NAME
3022 2019 RU ENG x264 BDRip-1080p-MediaBit.torrent
CATEGORY
Movies
INFOHASH
d6f97bb86289fc8896a37bba79670d305cedb65f
SIZE
9.6 GB in 1 file
ADDED
Uploaded on 22-10-2020 by our crawler pet called "Spidey".
SWARM
15 seeders & 0 peers
RATING
No votes yet.

Please login to vote for this torrent.


Description

Информация о фильме

Название: 3022

Оригинальное название: 3022

Год выхода: 2019

Жанр: Фантастика, триллер, драма

Режиссер: Джон Суитц

В ролях: Омар Эппс, Кейт Уолш, Миранда Косгров, Энгус Макфадьен, Джоржа Фокс, Энвер Гьокай, Хааз Слейман, Одри Луи, Брент Йошида, Фейт Алексис Оливер



О фильме: В недалеком будущем человечество осваивает ближайший космос и строит Европу-1 – колонию на орбите Юпитера. Для лучшего сообщения между Землей и газовым гигантом была создана Пангея – международная топливная станция, куда каждые десять лет на дежурство заступает команда из четырех человек из определенной страны. К 2190 году оборудование сильно изнашивается, тем не менее на станцию прибывает группа американских астронавтов, сменив китайский экипаж. На пятый год дежурства связь с Землей внезапно обрывается...







Страна: США

Студия: BondIt Media Capital, Hideout Pictures, The Squid Farm

Продолжительность: 01:31:40

Перевод: Любительский многоголосый | Синема Ус



Файл

Кодек: MPEG-4 AVC

Качество: BDRip 1080p

Видео: 11500 Кбит/с, 1920x720, 23.976 кадр/с

Звук:

Аудио #1: AC3, 48 Гц, 192 Кбит/сек, 2 ch | MVO | Синема Ус

Аудио #2: DTS-HD MA, 48 Гц, 3252 Кбит/сек, 6 ch | Английский

Субтитры: Английские





MIОбщее

Уникальный идентификатор : 68360413227730433945633619692157397713 (0x336DBC975C9C27F659A49773487FEAD1)

Полное имя : D:Торренты3022.2019.1080p.BluRay.x264.DTS-HD.MA.5.1-FGT3022.2019.RU.ENG.x264.BDRip-1080p-MediaBit.mkv

Формат : Matroska

Версия формата : Version 4

Размер файла : 9,59 Гбайт

Продолжительность : 1 ч. 31 м.

Режим общего битрейта : Переменный

Общий поток : 15,0 Мбит/сек

Название фильма : 3022 / 3022 (2019)

Дата кодирования : UTC 2020-10-20 19:48:32

Программа кодирования : mkvmerge v25.0.0 ('Prog Noir') 64-bit

Библиотека кодирования : libebml v1.3.6 + libmatroska v1.4.9



Видео

Идентификатор : 1

Формат : AVC

Формат/Информация : Advanced Video Codec

Профиль формата : [email protected]

Настройки формата : CABAC / 4 Ref Frames

Параметр CABAC формата : Да

Параметр RefFrames формата : 4 кадра

Идентификатор кодека : V_MPEG4/ISO/AVC

Продолжительность : 1 ч. 31 м.

Битрейт : 11,5 Мбит/сек

Ширина : 1 920 пикселей

Высота : 720 пикселей

Соотношение сторон : 2,667

Режим частоты кадров : Постоянный

Частота кадров : 23,976 (24000/1001) кадра/сек

Цветовое пространство : YUV

Субдискретизация насыщенности : 4:2:0

Битовая глубина : 8 бит

Тип развёртки : Прогрессивная

Бит/(Пиксели*Кадры) : 0.347

Размер потока : 7,36 Гбайт (77%)

Заголовок : 3022.2019.1080p.BluRay.x264.DTS-HD.MA.5.1-FGT

Библиотека кодирования : x264 core 148 r2795M aaa9aa8

Настройки программы : cabac=1 / ref=4 / deblock=1:-2:-2 / analyse=0x3:0x113 / me=umh / subme=9 / psy=1 / psy_rd=1.00:0.15 / mixed_ref=1 / me_range=16 / chroma_me=1 / trellis=2 / 8x8dct=1 / cqm=0 / deadzone=21,11 / fast_pskip=1 / chroma_qp_offset=-3 / threads=72 / lookahead_threads=3 / sliced_threads=0 / nr=0 / decimate=1 / interlaced=0 / bluray_compat=0 / constrained_intra=0 / bframes=3 / b_pyramid=2 / b_adapt=1 / b_bias=0 / direct=3 / weightb=1 / open_gop=0 / weightp=2 / keyint=250 / keyint_min=25 / scenecut=40 / intra_refresh=0 / rc_lookahead=50 / rc=2pass / mbtree=1 / bitrate=11500 / ratetol=1.0 / qcomp=0.60 / qpmin=0 / qpmax=69 / qpstep=4 / cplxblur=20.0 / qblur=0.5 / vbv_maxrate=31250 / vbv_bufsize=31250 / nal_hrd=none / filler=0 / ip_ratio=1.40 / aq=1:1.00

Default : Да

Forced : Нет



Аудио #1

Идентификатор : 2

Формат : AC-3

Формат/Информация : Audio Coding 3

Коммерческое название : Dolby Digital

Идентификатор кодека : A_AC3

Продолжительность : 1 ч. 31 м.

Вид битрейта : Постоянный

Битрейт : 192 Кбит/сек

Каналы : 2 канала

Channel layout : L R

Частота : 48,0 КГц

Частота кадров : 31,250 кадров/сек (1536 SPF)

Метод сжатия : С потерями

Размер потока : 126 Мбайт (1%)

Заголовок : MVO [Синема УС] MediaBit

Язык : Russian

Service kind : Complete Main

Default : Да

Forced : Нет



Аудио #2

Идентификатор : 3

Формат : DTS XLL

Формат/Информация : Digital Theater Systems

Коммерческое название : DTS-HD Master Audio

Идентификатор кодека : A_DTS

Продолжительность : 1 ч. 31 м.

Вид битрейта : Переменный

Битрейт : 3 252 Кбит/сек

Каналы : 6 каналов

Channel layout : C L R Ls Rs LFE

Частота : 48,0 КГц

Частота кадров : 93,750 кадра/сек (512 SPF)

Битовая глубина : 24 бит

Метод сжатия : Без потерь

Размер потока : 2,08 Гбайт (22%)

Заголовок : 3022.2019.1080p.BluRay.x264.DTS-HD.MA.5.1-FGT

Язык : English

Default : Нет

Forced : Нет



Текст #1

Идентификатор : 4

Формат : UTF-8

Идентификатор кодека : S_TEXT/UTF8

Идентификатор кодека/Информация : UTF-8 Plain Text

Продолжительность : 32 м. 52 с.

Битрейт : 2 бит/сек

Count of elements : 17

Размер потока : 531 байт (0%)

Заголовок : English-FORCED-SRT

Язык : English

Default : Нет

Forced : Нет



Текст #2

Идентификатор : 5

Формат : UTF-8

Идентификатор кодека : S_TEXT/UTF8

Идентификатор кодека/Информация : UTF-8 Plain Text

Продолжительность : 1 ч. 15 м.

Битрейт : 54 бит/сек

Count of elements : 1016

Размер потока : 30,3 Кбайт (0%)

Заголовок : English-SRT

Язык : English

Default : Нет

Forced : Нет



Текст #3

Идентификатор : 6

Формат : PGS

Режим смешивания : zlib

Идентификатор кодека : S_HDMV/PGS

Идентификатор кодека/Информация : Picture based subtitle format used on BDs/HD-DVDs

Продолжительность : 32 м. 52 с.

Битрейт : 1 346 бит/сек

Count of elements : 28

Размер потока : 324 Кбайт (0%)

Заголовок : English-FORCED-PGS

Язык : English

Default : Нет

Forced : Нет



Текст #4

Идентификатор : 7

Формат : PGS

Режим смешивания : zlib

Идентификатор кодека : S_HDMV/PGS

Идентификатор кодека/Информация : Picture based subtitle format used on BDs/HD-DVDs

Продолжительность : 1 ч. 15 м.

Битрейт : 40,5 Кбит/сек

Count of elements : 2038

Размер потока : 21,8 Мбайт (0%)

Заголовок : English-PGS

Язык : English

Default : Нет

Forced : Нет



Текст #5

Идентификатор : 8

Формат : PGS

Режим смешивания : zlib

Идентификатор кодека : S_HDMV/PGS

Идентификатор кодека/Информация : Picture based subtitle format used on BDs/HD-DVDs

Продолжительность : 1 ч. 26 м.

Битрейт : 39,8 Кбит/сек

Count of elements : 2342

Размер потока : 24,5 Мбайт (0%)

Заголовок : English-SDH-PGS

Язык : English

Default : Нет

Forced : Нет



Меню

00:00:00.000 : en:Change

00:07:39.793 : en:Problems

00:17:21.749 : en:No Contact

00:23:51.555 : en:Lisa

00:30:50.849 : en:Desire

00:40:01.983 : en:Richard

00:47:58.250 : en:Party

00:56:30.012 : en:Destruction

01:04:20.482 : en:Conflict

01:10:50.329 : en:Seperated

01:20:14.810 : en:Departure

01:28:14.873 : en:End CreditsСкриншоты



Релиз от:

Discussion

Comments 0

Post Your Comment

Files in this torrent

FILENAMESIZE
3022.2019.RU.ENG.x264.BDRip-1080p-MediaBit.mkv9.6 GB

Alternative Torrents for 'RU ENG MediaBit'.

TORRENT NAMEADDEDSIZESEEDSPEERSHEALTH
10/25/20206.7 GB37318
10/19/20206.3 GB473
10/6/20207.1 GB400
10/11/20203 GB391
10/26/20204.6 GB343
10/24/20206.4 GB331
10/12/20201.4 GB310
10/12/20204.2 GB271
10/31/20203.5 GB260
10/6/20206.7 GB231
10/26/20205 GB211
10/16/20206.6 GB210
10/11/20201.4 GB190
10/22/20209.6 GB150
10/11/20205.1 GB131