The Trial Of The Chicago 7 (2020) From Wolf1245 & MediaBit

Torrent Details


The Trial of the Chicago 7 (2020) from wolf1245 & MediaBit

NAME
The Trial of the Chicago 7 (2020) from wolf1245 & MediaBit.torrent
CATEGORY
Movies
INFOHASH
a695f92160f669f274e8a9d7dca8d844c65a9946
SIZE
751 MB in 1 file
ADDED
Uploaded on 22-10-2020 by our crawler pet called "Spidey".
SWARM
0 seeders & 0 peers
RATING
This torrent has a bad rating! This torrent has BAD rating with 0 votes.

Please login to vote for this torrent.


Description

Суд над чикагской семеркой / The Trial of the Chicago 7









Информация о фильме:

Название: Суд над чикагской семеркой

Оригинальное название: The Trial of the Chicago 7

Год выхода: 2020

Жанр: Триллер, биография, драма, история, реальные события

Режиссер: Аарон Соркин

В ролях: Эдди Редмэйн, Алекс Шарп, Саша Барон Коэн, Джереми Стронг, Джон Кэрролл Линч, Яхья Абдул-Матин II, Марк Райлэнс, Джозеф Гордон-Левитт, Бен Шенкман, Дж.С. МакКензи



Описание: Новый фильм по сценарию обладателя премии "Оскар" Аарона Соркина, который он же и срежиссировал, имеет все шансы стать лучшим в году... 60-е для всего мира стали временем перемен: две пережитых войны за спиной, разразившиеся Берлинский и Карибский кризисы, "культурная революция" в КНР, воцарение режима "черных полковников" в Греции - все эти события намекали на то, что старый мир нуждается в реформации. В США, которые колошматило от утопической страны мечты до вотчины Большого брата времен Уотергейтского скандала, часто забывают о "деле чикагской семерки" - громком судебном процессе, который оказал огромное влияние на американское общество... Второй режиссерский проект Аарона Соркина (после "Большой игры"), мастера диалогового кино, рассказывает именно об этом. Сценарий был написан еще в 2007 году, и тогда в кресле постановщика видели Стивена Спилберга, но "Суд над чикагской семеркой" ушел на полку и вернулся именно тогда, когда должен был. Кажется, более актуального сюжета к 2020 году просто не придумать...







Страна: США, Великобритания, Индия

Студия: Dreamworks Pictures, Amblin Partners, CAA Media Finance

Продолжительность: 02:10:10

Перевод: Профессиональный (многоголосый, закадровый) - HDRezka Studio







Информация о файле:

Кодек: AVC

Формат: MKV

Качество: WEB-DLRip-AVC

Видео: MPEG-4 AVC, 720x302 (2.40:1), 24.000 fps, 710 kbps, 0.136

Аудио RU: AAC-HE, 2 ch, 48 kHz, 96 kbps

Субтитры: Русские (forced, full), английские







Скриншоты

MediaInfoGeneral

Unique ID : 145763238817127963032211780004884429536 (0x6DA8FA8856F12B6A1F85757D010ABAE0)

Complete name : D:uTorrentРипы_от_wolf1245_MediaBitThe Trial of the Chicago 7 (2020) from wolf1245 & MediaBit.mkv

Format : Matroska

Format version : Version 4

File size : 751 MiB

Duration : 2 h 10 min

Overall bit rate : 806 kb/s

Movie name : The Trial of the Chicago 7 (2020) from wolf1245 & MediaBit

Encoded date : UTC 2020-10-22 18:56:27

Writing application : mkvmerge v51.0.0 ('I Wish') 64-bit

Writing library : libebml v1.4.0 + libmatroska v1.6.2



Video

ID : 1

Format : AVC

Format/Info : Advanced Video Codec

Format profile : [email protected]

Format settings : CABAC / 11 Ref Frames

Format settings, CABAC : Yes

Format settings, Reference frames : 11 frames

Codec ID : V_MPEG4/ISO/AVC

Duration : 2 h 10 min

Bit rate : 710 kb/s

Width : 720 pixels

Height : 302 pixels

Display aspect ratio : 2.40:1

Frame rate mode : Constant

Frame rate : 24.000 FPS

Color space : YUV

Chroma subsampling : 4:2:0

Bit depth : 8 bits

Scan type : Progressive

Bits/(Pixel*Frame) : 0.136

Stream size : 659 MiB (88%)

Title : wolf1245 & MediaBit

Writing library : x264 core 157 r2958 57baac4

Encoding settings : cabac=1 / ref=11 / deblock=1:-3:-3 / analyse=0x3:0x133 / me=umh / subme=11 / psy=1 / psy_rd=0.98:0.06 / mixed_ref=1 / me_range=48 / chroma_me=1 / trellis=2 / 8x8dct=1 / cqm=0 / deadzone=21,11 / fast_pskip=0 / chroma_qp_offset=-3 / threads=10 / lookahead_threads=2 / sliced_threads=0 / nr=0 / decimate=0 / interlaced=0 / bluray_compat=0 / constrained_intra=0 / bframes=11 / b_pyramid=2 / b_adapt=2 / b_bias=0 / direct=3 / weightb=1 / open_gop=0 / weightp=2 / keyint=240 / keyint_min=24 / scenecut=40 / intra_refresh=0 / rc_lookahead=60 / rc=2pass / mbtree=0 / bitrate=710 / ratetol=1.0 / qcomp=0.60 / qpmin=0 / qpmax=69 / qpstep=4 / cplxblur=20.0 / qblur=0.5 / vbv_maxrate=50000 / vbv_bufsize=62500 / nal_hrd=none / filler=0 / ip_ratio=1.40 / pb_ratio=1.30 / aq=1:1.00

Language : English

Default : Yes

Forced : No



Audio

ID : 2

Format : AAC LC SBR

Format/Info : Advanced Audio Codec Low Complexity with Spectral Band Replication

Commercial name : HE-AAC

Format settings : Implicit

Codec ID : A_AAC-2

Duration : 2 h 10 min

Bit rate : 96.0 kb/s

Channel(s) : 2 channels

Channel layout : L R

Sampling rate : 48.0 kHz

Frame rate : 23.438 FPS (2048 SPF)

Compression mode : Lossy

Stream size : 89.4 MiB (12%)

Title : MVO HDRezka Studio

Language : Russian

Default : Yes

Forced : No



Text #1

ID : 3

Format : UTF-8

Codec ID : S_TEXT/UTF8

Codec ID/Info : UTF-8 Plain Text

Duration : 1 h 57 min

Bit rate : 4 b/s

Count of elements : 62

Stream size : 4.07 KiB (0%)

Title : forced

Language : Russian

Default : No

Forced : No



Text #2

ID : 4

Format : UTF-8

Codec ID : S_TEXT/UTF8

Codec ID/Info : UTF-8 Plain Text

Duration : 2 h 8 min

Bit rate : 138 b/s

Count of elements : 2092

Stream size : 130 KiB (0%)

Language : Russian

Default : No

Forced : No



Text #3

ID : 5

Format : UTF-8

Codec ID : S_TEXT/UTF8

Codec ID/Info : UTF-8 Plain Text

Duration : 2 h 7 min

Bit rate : 91 b/s

Count of elements : 2090

Stream size : 85.6 KiB (0%)

Language : English

Default : No

Forced : No







Релиз от: & &

Discussion

Comments 0

Post Your Comment

Files in this torrent

FILENAMESIZE
The Trial of the Chicago 7 (2020) from wolf1245 & MediaBit.mkv750.7 MB

Alternative Torrents for 'Trial of Chicago from wolf MediaBit'.

There are no alternative torrents found.