Beetlejuice (1988) 1080p 5 1 - 2 0 X264 Phun Psyz

Torrent Details

Beetlejuice (1988) 1080p 5 1 - 2 0 x264 Phun Psyz

NAME
Beetlejuice (1988) 1080p 5 1 - 2 0 x264 Phun Psyz.torrent
CATEGORY
Movies
INFOHASH
f6e4acfa66572bdcdcbd8ee576476e26186a1997
SIZE
1.8 GB in 1 file
ADDED
Uploaded on 23-10-2020 by our crawler pet called "Spidey".
SWARM
0 seeders & 0 peers
RATING
No votes yet.

Please login to vote for this torrent.


Description

www.imdb.com/title/tt0094721/



The spirits of a deceased couple are harassed by an unbearable family that has moved into their home, and hire a malicious spirit to drive them out.



Source: SWTYBLZ (BR)







Format                      : MPEG-4

Format profile              : Base Media / Version 2

Codec ID                    : mp42 (isom/iso2/avc1/mp41)

File size                   : 1.76 GiB

Duration                    : 1 h 32 min

Overall bit rate mode       : Variable

Overall bit rate            : 2 736 kb/s

Writing application         : HandBrake 1.2.0 2018121700



Video

ID                          : 1

Format                      : AVC

Format/Info                 : Advanced Video Codec

Format profile              : [email protected]

Format settings             : CABAC / 1 Ref Frames

Format settings, CABAC      : Yes

Format settings, Reference  : 1 frame

Codec ID                    : avc1

Codec ID/Info               : Advanced Video Coding

Duration                    : 1 h 32 min

Bit rate                    : 2 248 kb/s

Width                       : 1 920 pixels

Height                      : 1 038 pixels

Display aspect ratio        : 1.85:1

Frame rate mode             : Variable

Frame rate                  : 23.976 FPS

Color space                 : YUV

Chroma subsampling          : 4:2:0

Bit depth                   : 8 bits

Scan type                   : Progressive

Bits/(Pixel*Frame)          : 0.047

Stream size                 : 1.45 GiB (82%)

Writing library             : x264 core 157 r2935 545de2f

Color primaries             : BT.709

Transfer characteristics    : BT.709

Matrix coefficients         : BT.709



Audio #1

ID                          : 2

Format                      : AC-3

Format/Info                 : Audio Coding 3

Commercial name             : Dolby Digital

Codec ID                    : ac-3

Duration                    : 1 h 32 min

Bit rate mode               : Constant

Bit rate                    : 320 kb/s

Channel(s)                  : 6 channels

Channel layout              : L R C LFE Ls Rs

Sampling rate               : 48.0 kHz

Frame rate                  : 31.250 FPS (1536 SPF)

Compression mode            : Lossy

Stream size                 : 211 MiB (12%)

Title                       : Surround

Language                    : English

Service kind                : Complete Main

Default                     : Yes



Audio #2

ID                          : 3

Format                      : AAC LC

Format/Info                 : Advanced Audio Codec Low Complexity

Codec ID                    : mp4a-40-2

Duration                    : 1 h 32 min

Bit rate mode               : Constant

Bit rate                    : 161 kb/s

Channel(s)                  : 2 channels

Channel layout              : L R

Sampling rate               : 48.0 kHz

Frame rate                  : 46.875 FPS (1024 SPF)

Compression mode            : Lossy

Stream size                 : 106 MiB (6%)

Title                       : Stereo

Language                    : English



Text

Language                    : English

Default                     : Yes

Forced                      : No



Menu

00:00:00.000                : Overhead Credits

00:02:38.825                : The Perfect Vacation

00:05:44.344                : A Wrong Turn

00:08:12.492                : Recently Deceased

00:10:56.656                : Perusing The Obits

00:13:19.465                : Enter The Deetzes

00:16:07.633                : Ghostly Gambits

00:19:35.841                : Wormlike Wildlife

00:22:11.997                : Moving Day

00:24:53.492                : The Power Of Advertising

00:26:46.939                : The Afterlife

00:31:43.235                : Interview With Juno

00:37:27.579                : Help Me!

00:38:24.969                : Unspookable

00:43:54.632                : Beetlejuice

00:50:45.709                : The Dinner Party (Day-O)

00:55:01.965                : No-Shows

00:58:54.197                : Turn On The Juice

01:01:02.325                : "Make My Millenium"

01:02:43.760                : Never Trust The Living

01:04:03.840                : Funny Faces

01:07:17.367                : Lydia Meets Beetlejuice

01:11:37.627                : Ortho's Seance

01:17:12.628                : "It's Showtime"

01:19:26.095                : Marriage Of Inconvenience

01:24:50.419                : High Marks

01:27:03.885                : Lightheaded

01:28:21.296                : End Credits

Discussion

Comments 0

Post Your Comment

Files in this torrent

FILENAMESIZE
Beetlejuice (1988) 1080p 5.1 - 2.0 x264 Phun Psyz.mp41.8 GB

Alternative Torrents for 'Beetlejuice Phun Psyz'.

TORRENT NAMEADDEDSIZESEEDSPEERSHEALTH
10/28/20202.4 GB00
10/23/20201.8 GB00