The Witches 2020 RU ENG X264 WEB-DL-1080p-MediaBit

Torrent Details

The Witches 2020 RU ENG x264 WEB-DL-1080p-MediaBit
The Witches 2020 RU ENG x264 WEB-DL-1080p-MediaBit

NAME
The Witches 2020 RU ENG x264 WEB-DL-1080p-MediaBit.torrent
CATEGORY
Movies
INFOHASH
64f849b5745843cdc53938b8b785192e417bfea4
SIZE
6.4 GB in 1 file
ADDED
Uploaded on 24-10-2020 by our crawler pet called "Spidey".
SWARM
0 seeders & 0 peers
RATING
No votes yet.

Please login to vote for this torrent.


Description

Информация о фильме

Название: Ведьмы

Оригинальное название: The Witches

Год выхода: 2020

Жанр: Фэнтези, комедия, детектив, приключения, семейный

Режиссер: Роберт Земекис

В ролях: Энн Хэтэуэй, Октавия Спенсер, Стэнли Туччи, Крис Рок, Коди-Лей Истик, Чарльз Эдвардс, Моргана Робинсон, Джазир Бруно, Евгения Карузо, Саймон Маньонда



О фильме: Ведьмы существуют, и они среди нас! Знаменитую книгу Даля заново откроют для современных зрителей. Визуально инновационные «Ведьмы» Земекиса расскажут полную мрачного юмора и в то же время трогательную историю юного сироты. В конце 1967 года мальчик переезжает к своей любимой бабушке в Демополис, сельский городок в Алабаме. Там они случайно сталкиваются с обманчиво обаятельными и дьявольски коварными ведьмами, поэтому бабуля мудро увозит нашего юного героя на роскошный морской курорт. Увы, они приезжают туда ровно тогда, когда Величайшая Самая Главная Ведьма собирает – конечно же, тайно – последовательниц со всего света, чтобы воплотить свои страшные злодейские планы.







Страна: Мексика, США

Студия: Warner Bros., ImageMovers, Double Dare You

Продолжительность: 01:44:12

Перевод: Любительский многоголосый | @[email protected]



Файл

Кодек: MPEG-4 AVC

Качество: WEB-DL 1080p

Видео: 8228 Кбит/с, 1920x816, 23.976 кадр/с

Звук:

Аудио #1: AC3, 48 Гц, 192 Кбит/сек, 2 ch | MVO | @[email protected]

Аудио #2: AC3, 48 Гц, 384 Кбит/сек, 6 ch | Английский

Субтитры: Английские





MIОбщее

Уникальный идентификатор : 117628100834455574538223380872543816508 (0x587E5921A8BE44978AED2A0D3F7F4B3C)

Полное имя : D:ТоррентыThe.Witches.2020.2020.1080p.HMAX.WEBRip.DD5.1.x264-MZABIThe.Witches.2020.RU.ENG.x264.WEB-DL-1080p-MediaBit.mkv

Формат : Matroska

Версия формата : Version 4

Размер файла : 6,41 Гбайт

Продолжительность : 1 ч. 44 м.

Режим общего битрейта : Переменный

Общий поток : 8 807 Кбит/сек

Название фильма : Ведьмы / The Witches (2020)

Дата кодирования : UTC 2020-10-24 12:30:46

Программа кодирования : mkvmerge v25.0.0 ('Prog Noir') 64-bit

Библиотека кодирования : libebml v1.3.6 + libmatroska v1.4.9



Видео

Идентификатор : 1

Формат : AVC

Формат/Информация : Advanced Video Codec

Профиль формата : [email protected]

Настройки формата : CABAC / 4 Ref Frames

Параметр CABAC формата : Да

Параметр RefFrames формата : 4 кадра

Идентификатор кодека : V_MPEG4/ISO/AVC

Продолжительность : 1 ч. 44 м.

Вид битрейта : Переменный

Битрейт : 8 228 Кбит/сек

Максимальный битрейт : 12,4 Мбит/сек

Ширина : 1 920 пикселей

Высота : 816 пикселей

Соотношение сторон : 2,35:1

Режим частоты кадров : Постоянный

Частота кадров : 23,976 (24000/1001) кадра/сек

Цветовое пространство : YUV

Субдискретизация насыщенности : 4:2:0

Битовая глубина : 8 бит

Тип развёртки : Прогрессивная

Бит/(Пиксели*Кадры) : 0.219

Размер потока : 5,99 Гбайт (93%)

Язык : English

Default : Да

Forced : Нет

Цветовой диапазон : Limited

Основные цвета : BT.709

Характеристики трансфера : BT.709

Коэффициенты матрицы : BT.709



Аудио #1

Идентификатор : 2

Формат : AC-3

Формат/Информация : Audio Coding 3

Коммерческое название : Dolby Digital

Идентификатор кодека : A_AC3

Продолжительность : 1 ч. 44 м.

Вид битрейта : Постоянный

Битрейт : 192 Кбит/сек

Каналы : 2 канала

Channel layout : L R

Частота : 48,0 КГц

Частота кадров : 31,250 кадров/сек (1536 SPF)

Метод сжатия : С потерями

Размер потока : 143 Мбайт (2%)

Заголовок : MVO [@[email protected]]

Язык : Russian

Service kind : Complete Main

Default : Да

Forced : Нет



Аудио #2

Идентификатор : 3

Формат : AC-3

Формат/Информация : Audio Coding 3

Коммерческое название : Dolby Digital

Идентификатор кодека : A_AC3

Продолжительность : 1 ч. 44 м.

Вид битрейта : Постоянный

Битрейт : 384 Кбит/сек

Каналы : 6 каналов

Channel layout : L R C LFE Ls Rs

Частота : 48,0 КГц

Частота кадров : 31,250 кадров/сек (1536 SPF)

Метод сжатия : С потерями

Размер потока : 286 Мбайт (4%)

Заголовок : English

Язык : English

Service kind : Complete Main

Default : Нет

Forced : Нет



Текст #1

Идентификатор : 4

Формат : UTF-8

Идентификатор кодека : S_TEXT/UTF8

Идентификатор кодека/Информация : UTF-8 Plain Text

Продолжительность : 1 ч. 36 м.

Битрейт : 58 бит/сек

Count of elements : 1537

Размер потока : 41,0 Кбайт (0%)

Заголовок : English

Язык : English

Default : Нет

Forced : Нет



Текст #2

Идентификатор : 5

Формат : UTF-8

Идентификатор кодека : S_TEXT/UTF8

Идентификатор кодека/Информация : UTF-8 Plain Text

Продолжительность : 1 ч. 36 м.

Битрейт : 69 бит/сек

Count of elements : 1788

Размер потока : 49,0 Кбайт (0%)

Заголовок : English [SDH]

Язык : English

Default : Нет

Forced : НетСкриншоты



Релиз от:

Discussion

Comments 0

Post Your Comment

Files in this torrent

FILENAMESIZE
The.Witches.2020.RU.ENG.x264.WEB-DL-1080p-MediaBit.mkv6.4 GB

Alternative Torrents for 'Witches RU ENG MediaBit'.

TORRENT NAMEADDEDSIZESEEDSPEERSHEALTH
10/25/20206.7 GB00
10/24/20206.4 GB00