Wife In A Metro (2020) ULLU Hindi 1080p WEBDL X264 AAC

Torrent Details

Wife In a Metro (2020) ULLU Hindi 1080p WEBDL x264 AAC
Wife In a Metro (2020) ULLU Hindi 1080p WEBDL x264 AAC

NAME
Wife In a Metro (2020) ULLU Hindi 1080p WEBDL x264 AAC.torrent
CATEGORY
Movies
INFOHASH
315c3b9150f6efa9ba2ac8c050c6baa61c0848a2
SIZE
301 MB in 1 file
ADDED
Uploaded on 24-10-2020 by our crawler pet called "Spidey".
SWARM
28 seeders & 1 peers
RATING
No votes yet.

Please login to vote for this torrent.


Description

Wife In a Metro:
When a bleeding heart is pampered by unexpected love, relationships bloom.
But what happens when trifling transverse connections between two turn their world upside down?
Story of a lonely heart.

Cast
Imran Khan ( Viabhav ) , Rajiv Kumar ( Rajeev ), Monaz Mewavala ( Renu ) , Ziya Siddique ( Jhanvi )
Director
Sunny Kapoor & Imran Khan.

Format : Matroska
Format version : Version 4
File size : 301 MiB
Duration : 21 min 31 s
Overall bit rate : 1 957 kb/s

Video
ID : 1
Format : AVC
Format/Info : Advanced Video Codec
Format profile : [email protected]
Format settings : 1 Ref Frames
Format settings, CABAC : No
Format settings, Reference frames : 1 frame
Codec ID : V_MPEG4/ISO/AVC
Duration : 21 min 31 s
Bit rate : 1 827 kb/s
Width : 1 920 pixels
Height : 1 080 pixels
Display aspect ratio : 16:9
Frame rate mode : Constant
Frame rate : 24.000 FPS
Color space : YUV
Chroma subsampling : 4:2:0
Bit depth : 8 bits
Scan type : Progressive
Bits/(Pixel*Frame) : 0.037
Stream size : 281 MiB (93%)

Audio
ID : 2
Format : AAC LC
Format/Info : Advanced Audio Codec Low Complexity
Codec ID : A_AAC-2
Duration : 21 min 31 s
Bit rate : 128 kb/s
Channel(s) : 2 channels
Channel layout : L R
Sampling rate : 48.0 kHz
Frame rate : 46.875 FPS (1024 SPF)
Compression mode : Lossy
Stream size : 19.7 MiB (7%)
Language : Hindi
Default : Yes

Discussion

Comments 0

Post Your Comment

Files in this torrent

FILENAMESIZE
Wife In a Metro (2020) ULLU Hindi 1080p WEBDL x264 AAC.mkv301.4 MB

Alternative Torrents for 'Wife Metro ULLU Hindi AAC'.

TORRENT NAMEADDEDSIZESEEDSPEERSHEALTH
10/24/2020301 MB281