Over The Moon-Il Fantastico Mondo Di Lunaria (2020) ITA-ENG Ac3 5.1 WEBRip 1080p H264 [ArMor]

Torrent Details


Over the Moon-Il fantastico mondo di Lunaria (2020) ITA-ENG Ac3 5.1 WEBRip 1080p H264 <span style=color:#fc9c6d>[ArMor]</span>

NAME
Over the Moon-Il fantastico mondo di Lunaria (2020) ITA-ENG Ac3 5.1 WEBRip 1080p H264 [ArMor].torrent
CATEGORY
Movies
INFOHASH
435560e2d9b9027b6e474c8df0f5ffd089f88867
SIZE
3.7 GB in 4 files
ADDED
Uploaded on 24-10-2020 by our crawler pet called "Spidey".
SWARM
26 seeders & 4 peers
RATING
No votes yet.

Please login to vote for this torrent.


Description











Regista: Glen Keane

Genere: Animazione, Avventura, Musicale

Anno: 2020

Paese: USA, Cina

Durata: 95 min

Distribuzione: Netflix







Cathy Ang, Irene Tsu, Phillipa Soo, Ken Jeong, Robert G. Chiu, John Cho, Ruthie Ann Miles, Margaret Cho, Kimiko Glenn, Sandra Oh







Over the Moon, il film d'animazione diretto da Glen Keane, racconta la storia di Fei Fei (voce originale Cathy Ang), intelligente e giovane sognatrice con una grande passione per la scienza.







In this animated musical, a girl builds a rocket ship and blasts off, hoping to meet a mythical moon goddess.

























General

Unique ID                                : 224007914995238168430486325938414040922 (0xA8865AE998D7A960A11FBDBE6D32375A)

Complete name                            : Over the Moon-Il fantastico mondo di Lunaria (2020) ITA-ENG Ac3 5.1 WEBRip 1080p H264 [ArMor].mkv

Format                                   : Matroska

Format version                           : Version 4

File size                                : 3.74 GiB

Duration                                 : 1 h 40 min

Overall bit rate                         : 5 343 kb/s

Encoded date                             : UTC 2020-10-23 18:58:33

Writing application                      : mkvmerge v15.0.0 ('Duel with the Devil') 64-bit

Writing library                          : libebml v1.3.5 + libmatroska v1.4.5 / Lavf58.29.100



Video

ID                                       : 1

Format                                   : AVC

Format/Info                              : Advanced Video Codec

Format profile                           : [email protected]

Format settings                          : CABAC / 4 Ref Frames

Format settings, CABAC                   : Yes

Format settings, Reference frames        : 4 frames

Codec ID                                 : V_MPEG4/ISO/AVC

Duration                                 : 1 h 40 min

Bit rate                                 : 4 446 kb/s

Width                                    : 1 920 pixels

Height                                   : 1 036 pixels

Display aspect ratio                     : 1.85:1

Frame rate mode                          : Constant

Frame rate                               : 24.000 FPS

Color space                              : YUV

Chroma subsampling                       : 4:2:0

Bit depth                                : 8 bits

Scan type                                : Progressive

Bits/(Pixel*Frame)                       : 0.093

Stream size                              : 3.11 GiB (83%)

Writing library                          : x264 core 157 r2935 545de2f

Encoding settings                        : cabac=1 / ref=2 / deblock=1:0:0 / analyse=0x1:0x111 / me=hex / subme=6 / psy=1 / psy_rd=1.00:0.00 / mixed_ref=1 / me_range=16 / chroma_me=1 / trellis=1 / 8x8dct=0 / cqm=0 / deadzone=21,11 / fast_pskip=1 / chroma_qp_offset=-2 / threads=18 / lookahead_threads=3 / sliced_threads=0 / nr=0 / decimate=1 / interlaced=0 / bluray_compat=0 / constrained_intra=0 / bframes=3 / b_pyramid=2 / b_adapt=1 / b_bias=0 / direct=1 / weightb=1 / open_gop=0 / weightp=1 / keyint=240 / keyint_min=24 / scenecut=40 / intra_refresh=0 / rc_lookahead=30 / rc=crf / mbtree=1 / crf=20.0 / qcomp=0.60 / qpmin=0 / qpmax=69 / qpstep=4 / vbv_maxrate=20000 / vbv_bufsize=25000 / crf_max=0.0 / nal_hrd=none / filler=0 / ip_ratio=1.40 / aq=1:1.00

Default                                  : Yes

Forced                                   : No

Color range                              : Limited

Color primaries                          : BT.709

Transfer characteristics                 : BT.709

Matrix coefficients                      : BT.709



Audio #1

ID                                       : 2

Format                                   : AC-3

Format/Info                              : Audio Coding 3

Commercial name                          : Dolby Digital

Codec ID                                 : A_AC3

Duration                                 : 1 h 40 min

Bit rate mode                            : Constant

Bit rate                                 : 448 kb/s

Channel(s)                               : 6 channels

Channel layout                           : L R C LFE Ls Rs

Sampling rate                            : 48.0 kHz

Frame rate                               : 31.250 FPS (1536 SPF)

Compression mode                         : Lossy

Stream size                              : 321 MiB (8%)

Title                                    : WEBDL EAC3

Language                                 : Italian

Service kind                             : Complete Main

Default                                  : Yes

Forced                                   : No



Audio #2

ID                                       : 3

Format                                   : AC-3

Format/Info                              : Audio Coding 3

Commercial name                          : Dolby Digital

Codec ID                                 : A_AC3

Duration                                 : 1 h 40 min

Bit rate mode                            : Constant

Bit rate                                 : 448 kb/s

Channel(s)                               : 6 channels

Channel layout                           : L R C LFE Ls Rs

Sampling rate                            : 48.0 kHz

Frame rate                               : 31.250 FPS (1536 SPF)

Compression mode                         : Lossy

Stream size                              : 321 MiB (8%)

Title                                    : EAC3

Language                                 : English

Service kind                             : Complete Main

Default                                  : No

Forced                                   : No

Discussion

Comments 0

Post Your Comment

Files in this torrent

FILENAMESIZE
5ey35ye78aq5y.jpg142.3 KB
Over the Moon-Il fantastico mondo di Lunaria (2020) ITA-ENG Ac3 5.1 WEBRip 1080p H264 [ArMor].mkv3.7 GB
Over.the.Moon.Il.fantastico.mondo.di.Lunaria.2020.ITA-ENG.WEBDL.1080p_ita.srt97.1 KB
Over.the.Moon.Il.fantastico.mondo.di.Lunaria.2020.ITA-ENG.WEBDL.1080p_ita_forced.srt310 B

Alternative Torrents for 'Over MoonIl fantastico mondo di Lunaria ENG'.

TORRENT NAMEADDEDSIZESEEDSPEERSHEALTH
8/4/2020776 MB23611564
10/23/2020919 MB606246
10/23/20201.9 GB525188
10/25/20206.7 GB49438
10/23/2020794 MB28682
10/23/20201.5 GB20213
11/21/20202.7 GB197125
11/20/20203.6 GB16424
7/19/20201.1 GB15417
11/15/20201006 MB14114
11/6/20202.6 GB13325
10/23/20202.4 GB12836
11/18/20202 MB1271
9/13/20161.8 GB12424
11/13/20203.3 GB12015