Mirzapur 2020 S02 720p WEB-DL H264 Hindi AAC2 0 Msubs Sun George

Torrent Details

Mirzapur 2020 S02 720p WEB-DL H264 Hindi AAC2 0 Msubs Sun George
Mirzapur 2020 S02 720p WEB-DL H264 Hindi AAC2 0 Msubs Sun George

NAME
Mirzapur 2020 S02 720p WEB-DL H264 Hindi AAC2 0 Msubs Sun George.torrent
CATEGORY
Television
INFOHASH
f99c9c41155134f270eb0aac9ec8b567e076b3aa
SIZE
4.1 GB in 10 files
ADDED
Uploaded on 24-10-2020 by our crawler pet called "Spidey".
SWARM
315 seeders & 54 peers
RATING
No votes yet.

Please login to vote for this torrent.


Description

Mirzapur 2020 S02 720p WEB-DL H264 Hindi AAC2.0 Msubs Sun George





https://www.imdb.com/title/tt6473300/







General
Complete name : Mirzapur S02E01 2020 720p WEB-DL H264 Hindi AAC2.0.mkv
Format : Matroska
Format version : Version 4
File size : 466 MiB
Duration : 1 h 0 min
Overall bit rate : 1 074 kb/s
Encoded date : UTC 2020-10-22 14:54:31
Writing application : mkvmerge v44.0.0 ('Domino') 64-bit
Writing library : libebml v1.3.10 + libmatroska v1.5.2

Video
ID : 1
Format : AVC
Format/Info : Advanced Video Codec
Format profile : [email protected]
Format settings : CABAC / 3 Ref Frames
Format settings, CABAC : Yes
Format settings, Reference frames : 3 frames
Codec ID : V_MPEG4/ISO/AVC
Duration : 1 h 0 min
Bit rate : 880 kb/s
Width : 1 280 pixels
Height : 720 pixels
Display aspect ratio : 16:9
Frame rate mode : Constant
Frame rate : 25.000 FPS
Color space : YUV
Chroma subsampling : 4:2:0
Bit depth : 8 bits
Scan type : Progressive
Bits/(Pixel*Frame) : 0.038
Stream size : 382 MiB (82%)
Default : Yes
Forced : No

Audio
ID : 2
Format : AAC LC
Format/Info : Advanced Audio Codec Low Complexity
Codec ID : A_AAC-2
Duration : 1 h 0 min
Bit rate : 192 kb/s
Channel(s) : 2 channels
Channel layout : L R
Sampling rate : 48.0 kHz
Frame rate : 46.875 FPS (1024 SPF)
Compression mode : Lossy
Stream size : 83.4 MiB (18%)
Language : Hindi
Default : Yes
Forced : No

Text
ID : 3
Format : UTF-8
Codec ID : S_TEXT/UTF8
Codec ID/Info : UTF-8 Plain Text
Duration : 58 min 28 s
Bit rate : 41 b/s
Count of elements : 702
Stream size : 17.8 KiB (0%)
Language : English
Default : Yes
Forced : No 


Quote:  
In Case of Re-Seed on any Torrent, Please PM.

Quote:
If you have Problem with Audio , Use POT PLAYER.


Ripper Note:
Enjoy MovieAIO Release
Always Seed After Downloading












Discussion

Comments 0

Post Your Comment

Files in this torrent

FILENAMESIZE
Mirzapur S02E01 2020 720p WEB-DL H264 Hindi AAC2.0.mkv466.3 MB
Mirzapur S02E02 2020 720p WEB-DL H264 Hindi AAC2.0.mkv339.7 MB
Mirzapur S02E03 2020 720p WEB-DL H264 Hindi AAC2.0.mkv270.2 MB
Mirzapur S02E04 2020 720p WEB-DL H264 Hindi AAC2.0.mkv487.4 MB
Mirzapur S02E05 2020 720p WEB-DL H264 Hindi AAC2.0.mkv392.9 MB
Mirzapur S02E06 2020 720p WEB-DL H264 Hindi AAC2.0.mkv405.1 MB
Mirzapur S02E07 2020 720p WEB-DL H264 Hindi AAC2.0.mkv357.5 MB
Mirzapur S02E08 2020 720p WEB-DL H264 Hindi AAC2.0.mkv402 MB
Mirzapur S02E09 2020 720p WEB-DL H264 Hindi AAC2.0.mkv377 MB
Mirzapur S02E10 2020 720p WEB-DL H264 Hindi AAC2.0.mkv667.8 MB

Alternative Torrents for 'Mirzapur Hindi AAC Msubs Sun George'.

TORRENT NAMEADDEDSIZESEEDSPEERSHEALTH
10/1/20201.6 GB93076
Yesterday287 MB849322
11/12/20201 GB751136
11/25/2020223 MB684272
Yesterday186 MB630258
Yesterday306 MB550265
11/18/20201.3 GB53968
10/10/20204.1 GB511128
11/20/2020761 MB451332
11/26/2020211 MB443118
11/12/20201.3 GB40038
Yesterday276 MB394180
Yesterday329 MB393223
11/9/20201.8 GB392173
11/26/2020282 MB391210