Antebellum 2020 BDREMUX 2160p HDR SeleZen

Torrent Details

Antebellum 2020 BDREMUX 2160p HDR<span style=color:#fc9c6d> seleZen</span>

NAME
Antebellum 2020 BDREMUX 2160p HDR seleZen.torrent
CATEGORY
Movies
INFOHASH
2ddd128fbbfd803633418c2d3a7fd01acdd6ccaa
SIZE
52.5 GB in 1 file
ADDED
Uploaded on 24-10-2020 by our crawler pet called "Spidey".
SWARM
0 seeders & 0 peers
RATING
This torrent has a bad rating! This torrent has BAD rating with 0 votes.

Please login to vote for this torrent.


Description

Информация о фильме

Название: Антебеллум

Оригинальное название: Antebellum

Год выхода: 2020

Жанр: Триллер, драма

Режиссер: Джерард Буш, Кристофер Ренц

В ролях: Жанель Монэ, Марке Ричардсон II, Эрик Ланж, Джек Хьюстон, Кирси Клемонс, Тонгай Арнольд Чириса, Габури Сидибе, Роберт Арамайо, Джена Мэлоун, Лили Коулес







О фильме: Известная писательница, активистка и борец за права чёрных женщин Вероника Хенли оказывается в ужасающей реальности. Теперь она - бесправная рабыня на южной плантации, и в компании таких же бедолаг вынуждена ежедневно собирать хлопок и беспрекословно терпеть издевательства белых надсмотрщиков. Выбраться из этого ада не так-то просто, а всех пойманных беглецов ждёт жестокая кара.



Страна: США

Студия: Lionsgate, QC Entertainment

Продолжительность: 01:45:59

Перевод: Дублированный | iTunes



Качество: BDRemux 2160p

Видео: 3840x2160 at 23.976 fps, MPEG-H HEVC HDR Video, 65400 kbps avg

Аудио #01: 48 kHz, AC3, 5.1, 384 Kbps | iTunes | RUS |

Аудио #02: 48 kHz, TrueHD, 7.1, 4617 Kbps | Оригинал | ENG |

Аудио #03: 48 kHz, AC3, 5.1, 448 Kbps | Оригинал | ENG |

Субтитры: Английские







MIGeneral

Unique ID : 312068730829295242516300307940889128839 (0xEAC64057E40659D0E83352D753BCEF87)

Complete name : D:Video111Antebellum.2020.BDREMUX.2160p.HDR.seleZen.mkv

Format : Matroska

Format version : Version 4

File size : 52.5 GiB

Duration : 1 h 45 min

Overall bit rate mode : Variable

Overall bit rate : 70.9 Mb/s

Movie name : Antebellum 2020 UHD 4K from селезень

Encoded date : UTC 2020-10-24 18:47:10

Writing application : mkvmerge v40.0.0 ('Old Town Road + Pony') 64-bit

Writing library : libebml v1.3.9 + libmatroska v1.5.2



Video

ID : 1

Format : HEVC

Format/Info : High Efficiency Video Coding

Format profile : Main [email protected]@High

HDR format : SMPTE ST 2086, HDR10 compatible

Codec ID : V_MPEGH/ISO/HEVC

Duration : 1 h 45 min

Bit rate : 65.4 Mb/s

Width : 3 840 pixels

Height : 2 160 pixels

Display aspect ratio : 16:9

Frame rate mode : Constant

Frame rate : 23.976 (24000/1001) FPS

Color space : YUV

Chroma subsampling : 4:2:0 (Type 2)

Bit depth : 10 bits

Bits/(Pixel*Frame) : 0.329

Stream size : 48.4 GiB (92%)

Language : English

Default : Yes

Forced : No

Color range : Limited

Color primaries : BT.2020

Transfer characteristics : PQ

Matrix coefficients : BT.2020 non-constant

Mastering display color pri : Display P3

Mastering display luminance : min: 0.0010 cd/m2, max: 1000 cd/m2

Maximum Content Light Level : 1000 cd/m2

Maximum Frame-Average Light : 162 cd/m2



Audio #1

ID : 2

Format : AC-3

Format/Info : Audio Coding 3

Commercial name : Dolby Digital

Codec ID : A_AC3

Duration : 1 h 45 min

Bit rate mode : Constant

Bit rate : 384 kb/s

Channel(s) : 6 channels

Channel layout : L R C LFE Ls Rs

Sampling rate : 48.0 kHz

Frame rate : 31.250 FPS (1536 SPF)

Compression mode : Lossy

Stream size : 291 MiB (1%)

Title : iTunes

Language : Russian

Service kind : Complete Main

Default : Yes

Forced : Yes



Audio #2

ID : 3

Format : MLP FBA 16-ch

Format/Info : Meridian Lossless Packing FBA with 16-channel presentation

Commercial name : Dolby TrueHD with Dolby Atmos

Codec ID : A_TRUEHD

Duration : 1 h 45 min

Bit rate mode : Variable

Bit rate : 4 617 kb/s

Maximum bit rate : 7 149 kb/s

Channel(s) : 8 channels

Channel layout : L R C LFE Ls Rs Lb Rb

Sampling rate : 48.0 kHz

Frame rate : 1 200.000 FPS (40 SPF)

Compression mode : Lossless

Stream size : 3.42 GiB (7%)

Title : Original

Language : English

Default : No

Forced : No

Number of dynamic objects : 15

Bed channel count : 1 channel

Bed channel configuration : LFE



Audio #3

ID : 4

Format : AC-3

Format/Info : Audio Coding 3

Commercial name : Dolby Digital

Codec ID : A_AC3

Duration : 1 h 45 min

Bit rate mode : Constant

Bit rate : 448 kb/s

Channel(s) : 6 channels

Channel layout : L R C LFE Ls Rs

Sampling rate : 48.0 kHz

Frame rate : 31.250 FPS (1536 SPF)

Compression mode : Lossy

Stream size : 340 MiB (1%)

Language : English

Service kind : Complete Main

Default : No

Forced : No



Text

ID : 5

Format : UTF-8

Codec ID : S_TEXT/UTF8

Codec ID/Info : UTF-8 Plain Text

Duration : 1 h 36 min

Bit rate : 42 b/s

Count of elements : 1040

Stream size : 30.0 KiB (0%)

Title : Full

Language : English

Default : No

Forced : No



Menu

00:00:00.000 : en:Chapter 1

00:07:53.348 : en:Chapter 2

00:12:54.649 : en:Chapter 3

00:18:24.603 : en:Chapter 4

00:22:50.578 : en:Chapter 5

00:28:19.823 : en:Chapter 6

00:35:25.457 : en:Chapter 7

00:40:31.929 : en:Chapter 8

00:47:07.825 : en:Chapter 9

00:53:07.017 : en:Chapter 10

00:59:17.429 : en:Chapter 11

01:07:22.288 : en:Chapter 12

01:13:17.476 : en:Chapter 13

01:18:37.296 : en:Chapter 14

01:24:42.286 : en:Chapter 15

01:32:54.819 : en:Chapter 16

01:45:59.144 : en:Chapter 17



Релиз: Присоединяйся к:



Discussion

Comments 0

Post Your Comment

Files in this torrent

FILENAMESIZE
Antebellum.2020.BDREMUX.2160p.HDR.seleZen.mkv52.5 GB

Alternative Torrents for 'Antebellum HDR'.

TORRENT NAMEADDEDSIZESEEDSPEERSHEALTH
11/6/20207.9 GB00
11/5/202015.8 GB00
10/24/202052.5 GB00
10/8/202011.8 GB00
9/23/20202.7 GB04