Il Colore Venuto Dallo Spazio-Color Out Of Space (2019) ITA-ENG Ac3 5.1 BDRip 1080p H264 [ArMor]

Torrent Details


Il colore venuto dallo spazio-Color out of space (2019) ITA-ENG Ac3 5.1 BDRip 1080p H264 <span style=color:#fc9c6d>[ArMor]</span>

NAME
Il colore venuto dallo spazio-Color out of space (2019) ITA-ENG Ac3 5.1 BDRip 1080p H264 [ArMor].torrent
CATEGORY
Movies
INFOHASH
d29ce169f08266acff2205220682e243beff5172
SIZE
3.8 GB in 4 files
ADDED
Uploaded on 25-10-2020 by our crawler pet called "Spidey".
SWARM
0 seeders & 0 peers
RATING
No votes yet.

Please login to vote for this torrent.


Description



Regista: Richard Stanley
Genere: Horror, Fantascienza
Anno: 2019
Paese: Portogallo, USA, Malesia
Durata: 111 min



Nicolas Cage, Joely Richardson, Q'Orianka Kilcher, Elliot Knight, Tommy Chong, Julian Hilliard, Madeleine Arthur, Brendan Meyer



Color Out of Space, film diretto da Richard Stanley, è la storia di una famiglia, i Gardner, da poco trasferitesi in una sperduta fattoria del New England, sperando di fuggire dal trambusto frenetico dei nostri tempi. Ma quella serenità tanto agognata viene turbata dall'impatto di un meteorite proprio nel giardino della loro nuova dimora. Il corpo alieno, fusosi con il terreno, inizia a emettere misteriose radiazioni a tutto ciò che lo circonda, alterando e infettando ogni forma di vita con cui viene a contatto, compresi gli stessi Gardner...



A secluded farm is struck by a strange meteorite which has apocalyptic consequences for the family living there and possibly the world.












General
Unique ID : 234341281390642564315635737393719492566 (0xB04C7D35E5452432A3EE569175A13FD6)
Complete name : Il colore venuto dallo spazio-Color out of space (2019) ITA-ENG Ac3 5.1 BDRip 1080p H264 [ArMor].mkv
Format : Matroska
Format version : Version 4
File size : 3.80 GiB
Duration : 1 h 50 min
Overall bit rate : 4 951 kb/s
Encoded date : UTC 2020-10-24 20:09:02
Writing application : mkvmerge v15.0.0 ('Duel with the Devil') 64-bit
Writing library : libebml v1.3.5 + libmatroska v1.4.5 / Lavf58.29.100

Video
ID : 1
Format : AVC
Format/Info : Advanced Video Codec
Format profile : [email protected]
Format settings : CABAC / 4 Ref Frames
Format settings, CABAC : Yes
Format settings, Reference frames : 4 frames
Codec ID : V_MPEG4/ISO/AVC
Duration : 1 h 50 min
Bit rate : 4 053 kb/s
Width : 1 920 pixels
Height : 804 pixels
Display aspect ratio : 2.40:1
Frame rate mode : Constant
Frame rate : 24.000 FPS
Color space : YUV
Chroma subsampling : 4:2:0
Bit depth : 8 bits
Scan type : Progressive
Bits/(Pixel*Frame) : 0.109
Stream size : 3.11 GiB (82%)
Writing library : x264 core 157 r2935 545de2f
Encoding settings : cabac=1 / ref=2 / deblock=1:0:0 / analyse=0x1:0x111 / me=hex / subme=6 / psy=1 / psy_rd=1.00:0.00 / mixed_ref=1 / me_range=16 / chroma_me=1 / trellis=1 / 8x8dct=0 / cqm=0 / deadzone=21,11 / fast_pskip=1 / chroma_qp_offset=-2 / threads=18 / lookahead_threads=3 / sliced_threads=0 / nr=0 / decimate=1 / interlaced=0 / bluray_compat=0 / constrained_intra=0 / bframes=3 / b_pyramid=2 / b_adapt=1 / b_bias=0 / direct=1 / weightb=1 / open_gop=0 / weightp=1 / keyint=240 / keyint_min=24 / scenecut=40 / intra_refresh=0 / rc_lookahead=30 / rc=crf / mbtree=1 / crf=20.0 / qcomp=0.60 / qpmin=0 / qpmax=69 / qpstep=4 / vbv_maxrate=20000 / vbv_bufsize=25000 / crf_max=0.0 / nal_hrd=none / filler=0 / ip_ratio=1.40 / aq=1:1.00
Default : Yes
Forced : No
Color range : Limited
Color primaries : BT.709
Transfer characteristics : BT.709
Matrix coefficients : BT.709

Audio #1
ID : 2
Format : AC-3
Format/Info : Audio Coding 3
Commercial name : Dolby Digital
Codec ID : A_AC3
Duration : 1 h 50 min
Bit rate mode : Constant
Bit rate : 448 kb/s
Channel(s) : 6 channels
Channel layout : L R C LFE Ls Rs
Sampling rate : 48.0 kHz
Frame rate : 31.250 FPS (1536 SPF)
Compression mode : Lossy
Stream size : 352 MiB (9%)
Title : Itunes
Language : Italian
Service kind : Complete Main
Default : Yes
Forced : No

Audio #2
ID : 3
Format : AC-3
Format/Info : Audio Coding 3
Commercial name : Dolby Digital
Codec ID : A_AC3
Duration : 1 h 50 min
Bit rate mode : Constant
Bit rate : 448 kb/s
Channel(s) : 6 channels
Channel layout : L R C LFE Ls Rs
Sampling rate : 48.0 kHz
Frame rate : 31.250 FPS (1536 SPF)
Compression mode : Lossy
Stream size : 352 MiB (9%)
Title : DTS
Language : English
Service kind : Complete Main
Default : No
Forced : No

Discussion

Comments 0

Post Your Comment

Files in this torrent

FILENAMESIZE
aerrre5876r8i.jpg201.6 KB
Il colore venuto dallo spazio-Color out of space (2019) ITA-ENG Ac3 5.1 BDRip 1080p H264 [ArMor].mkv3.8 GB
Il.colore.venuto.dallo.spazio.2019.ITA-ENG.Bluray.1080p_ita.srt81.4 KB
Il.colore.venuto.dallo.spazio.2019.ITA-ENG.Bluray.1080p_ita_forced.srt610 B

Alternative Torrents for 'Il colore venuto dallo spazioColor out of space ENG'.

There are no alternative torrents found.