Аванпост (Расширенная версия) S01 (2020) SATRip by Nicodem Files-x

Torrent Details


Аванпост (Расширенная версия) s01 (2020) SATRip <span style=color:#fc9c6d>by Nicodem Files-x</span>

NAME
Аванпост (Расширенная версия) s01 (2020) SATRip by Nicodem Files-x.torrent
CATEGORY
Television
INFOHASH
e845aa696ee164b1a7538d590449bf2e8b6d312b
SIZE
619 MB in 0 files
ADDED
Uploaded on 26-10-2020 by our crawler pet called "Spidey".
SWARM
0 seeders & 0 peers
RATING
No votes yet.

Please login to vote for this torrent.


Description

Информация о фильме

Оригинальное название: Аванпост

Год выхода: 2020

Жанр: Постапокалипсис, триллер, фантастика, боевик

Режиссер: Егор Баранов

В ролях: Пётр Фёдоров (младший), Алексей Чадов, Константин Лавроненко, Светлана Иванова, Лукерья Ильяшенко, Ксения Кутепова, Юра Борисов (II), Илья Маланин, Сергей Годин, Филипп Авдеев, Ангелина Стречина, Артём Ткаченко



О фильме:

В ближайшем будущем в результате неустановленного катаклизма потеряна связь с большей частью Земли. В ходе разведопераций военные устанавливают, что на территориях, с которыми нет контакта, люди погибли – и погибли, по всей видимости, от яда, который «выбросил» в кровь их же организм. Мир поделился на зону карантина и круг жизни. Но немногие выжившие ещё не знают, что все, кто остался в зоне карантина, кого уже сложно назвать людьми, вскоре нападут на них...







Страна: Россия

Студия: 1-2-3 Production

Продолжительность: 1 х 00:48:03

Перевод: Не требуется



Файл

Кодек: XviD

Качество: SATRip

Видео: XviD, ~ 1600 Кбит/с, 720x288, 25 кадр/с

Звук: AC3, 2 ch, 192 Кбит/с



Скриншоты





MediaInfo

General

Complete name : C:01.Аванпост (Расширенная версия).s01.E01.(2020).SATRip.by.Nicodem.Files-x.avi

Format : AVI

Format/Info : Audio Video Interleave

File size : 619 MiB

Duration : 48mn 3s

Overall bit rate : 1 802 Kbps

Writing application : VirtualDubMod 1.5.10.3 | www.virtualdub-fr.org || (build 2550/release)

Writing library : VirtualDubMod build 2550/release



Video

ID : 0

Format : MPEG-4 Visual

Format profile : Advanced [email protected]

Format settings, BVOP : 1

Format settings, QPel : No

Format settings, GMC : No warppoints

Format settings, Matrix : Custom

Codec ID : XVID

Codec ID/Hint : XviD

Duration : 48mn 3s

Bit rate : 1 600 Kbps

Width : 720 pixels

Height : 288 pixels

Display aspect ratio : 2.500

Frame rate : 25.000 fps

Color space : YUV

Chroma subsampling : 4:2:0

Bit depth : 8 bits

Scan type : Progressive

Compression mode : Lossy

Bits/(Pixel*Frame) : 0.309

Stream size : 550 MiB (89%)

Writing library : XviD 73



Audio

ID : 1

Format : AC-3

Format/Info : Audio Coding 3

Mode extension : CM (complete main)

Codec ID : 2000

Duration : 48mn 3s

Bit rate mode : Constant

Bit rate : 192 Kbps

Channel(s) : 2 channels

Channel positions : Front: L R

Sampling rate : 48.0 KHz

Bit depth : 16 bits

Compression mode : Lossy

Stream size : 66.0 MiB (11%)

Alignment : Split accross interleaves

Interleave, duration : 40 ms (1.00 video frame)

Interleave, preload duration : 500 ms

Внимание! Раздача ведётся путём добавления новых серий

Раздача ведётся путём добавления новых серий, при каждом добавлении создаётся новый торрент. Чтобы начать докачку новой серии, пользователям необходимо сделать следующее:



- Остановить скачивание.

- Удалить старый торрент у себя из клиента (старые серии удалять не надо).

- Скачать новый торрент и запустить его у себя в клиенте вместо старого, при этом указать клиенту путь в старую папку куда и должно происходить скачивание новых серий.



Ваш клиент при этом должен произвести хеширование (проверку) старой папки (если не производит сам - помогите ему сделать это), и будет докачивать только те серии которых у вас ещё нет. Старые серии при этом не удаляются, а продолжают раздаваться!

Если вы уже удалили старые серии, то предотвратить повторную закачку старых серий можно, отжав галочку в соответствующих местах при запуске нового торрента. По возможности, желательно не удалять старые серии как можно дольше, чтобы релизер не столько продолжал раздавать старые серии, а смог сконцентрироваться на новых.



Релиз от:

Discussion

Comments 0

Post Your Comment

Torrent Files (Unavailable)

Please check back later to get a list of all files included in this torrent.

Alternative Torrents for 'Аванпост Расширенная версия SATRip'.

TORRENT NAMEADDEDSIZESEEDSPEERSHEALTH
10/26/2020619 MB00