Gli Occhi Della Notte-Wait Until Dark (1967) ITA-ENG AC3 2.0 BDRip 1080p H264 [ArMor]

Torrent Details


Gli occhi della notte-Wait until dark <span style=color:#777>(1967)</span> ITA-ENG AC3 2.0 BDRip 1080p H264 <span style=color:#fc9c6d>[ArMor]</span>

NAME
Gli occhi della notte-Wait until dark (1967) ITA-ENG AC3 2.0 BDRip 1080p H264 [ArMor].torrent
CATEGORY
Movies
INFOHASH
5fff212856545107df74b408ea850a085f4652e0
SIZE
7.4 GB in 2 files
ADDED
Uploaded on 29-10-2020 by our crawler pet called "Spidey".
SWARM
2 seeders & 0 peers
RATING
No votes yet.

Please login to vote for this torrent.


Description











Regista: Terence Young

Genere: Giallo

Anno: 1967

Paese: USA

Durata: 106 min

Distribuzione: WARNER BROTHERS SEVEN ARTS - WARNER HOME VIDEO (GLI SCUDI)







Audrey Hepburn, Alan Arkin, Richard Crenna, Efrem Zimbalist Jr., Jack Weston, Samantha Jones, Julie Herros







Sam, un fotografo, e sua moglie Susy, rimasta cieca in seguito ad un incidente, vengono casualmente in possesso di stupefacenti nascosti in una bambola che viene attivamente ricercata da tre delinquenti. Costoro, allontanato con un trucco Sam dalla città, si recano da Susy spacciandosi rispettivamente per un intimo amico di Sam, un poliziotto, ed un uomo alla vana ricerca della moglie. Susy non sa però dove si trovi la bambola e, con la sensibilità propria dei ciechi, riesce a rendersi conto dell'inganno. Resta tuttavia alla mercè dei banditi che la isolano totalmente dall'esterno.







A recently blinded woman is terrorized by a trio of thugs while they search for a heroin-stuffed doll they believe is in her apartment.

























General

Unique ID                                : 234405417045160811762082187855642003510 (0xB058D757A9CC08E0A04FE74180EC8836)

Complete name                            : Gli occhi della notte-Wait until dark (2019) ITA-ENG Ac3 2.0 BDRip 1080p H264 [ArMor].mkv

Format                                   : Matroska

Format version                           : Version 4

File size                                : 7.40 GiB

Duration                                 : 1 h 47 min

Overall bit rate                         : 9 834 kb/s

Encoded date                             : UTC 2020-10-28 13:15:16

Writing application                      : mkvmerge v15.0.0 ('Duel with the Devil') 64-bit

Writing library                          : libebml v1.3.5 + libmatroska v1.4.5 / Lavf58.29.100



Video

ID                                       : 1

Format                                   : AVC

Format/Info                              : Advanced Video Codec

Format profile                           : [email protected]

Format settings                          : CABAC / 4 Ref Frames

Format settings, CABAC                   : Yes

Format settings, Reference frames        : 4 frames

Codec ID                                 : V_MPEG4/ISO/AVC

Duration                                 : 1 h 47 min

Bit rate                                 : 9 448 kb/s

Width                                    : 1 920 pixels

Height                                   : 1 080 pixels

Display aspect ratio                     : 16:9

Frame rate mode                          : Constant

Frame rate                               : 23.976 (24000/1001) FPS

Color space                              : YUV

Chroma subsampling                       : 4:2:0

Bit depth                                : 8 bits

Scan type                                : Progressive

Bits/(Pixel*Frame)                       : 0.190

Stream size                              : 7.11 GiB (96%)

Writing library                          : x264 core 157 r2935 545de2f

Encoding settings                        : cabac=1 / ref=2 / deblock=1:0:0 / analyse=0x1:0x111 / me=hex / subme=6 / psy=1 / psy_rd=1.00:0.00 / mixed_ref=1 / me_range=16 / chroma_me=1 / trellis=1 / 8x8dct=0 / cqm=0 / deadzone=21,11 / fast_pskip=1 / chroma_qp_offset=-2 / threads=18 / lookahead_threads=3 / sliced_threads=0 / nr=0 / decimate=1 / interlaced=0 / bluray_compat=0 / constrained_intra=0 / bframes=3 / b_pyramid=2 / b_adapt=1 / b_bias=0 / direct=1 / weightb=1 / open_gop=0 / weightp=1 / keyint=240 / keyint_min=24 / scenecut=40 / intra_refresh=0 / rc_lookahead=30 / rc=crf / mbtree=1 / crf=20.0 / qcomp=0.60 / qpmin=0 / qpmax=69 / qpstep=4 / vbv_maxrate=20000 / vbv_bufsize=25000 / crf_max=0.0 / nal_hrd=none / filler=0 / ip_ratio=1.40 / aq=1:1.00

Default                                  : Yes

Forced                                   : No

Color range                              : Limited

Color primaries                          : BT.709

Transfer characteristics                 : BT.709

Matrix coefficients                      : BT.709



Audio #1

ID                                       : 2

Format                                   : AC-3

Format/Info                              : Audio Coding 3

Commercial name                          : Dolby Digital

Codec ID                                 : A_AC3

Duration                                 : 1 h 47 min

Bit rate mode                            : Constant

Bit rate                                 : 192 kb/s

Channel(s)                               : 2 channels

Channel layout                           : L R

Sampling rate                            : 48.0 kHz

Frame rate                               : 31.250 FPS (1536 SPF)

Compression mode                         : Lossy

Stream size                              : 148 MiB (2%)

Title                                    : DVD

Language                                 : Italian

Service kind                             : Complete Main

Default                                  : Yes

Forced                                   : No



Audio #2

ID                                       : 3

Format                                   : AC-3

Format/Info                              : Audio Coding 3

Commercial name                          : Dolby Digital

Codec ID                                 : A_AC3

Duration                                 : 1 h 47 min

Bit rate mode                            : Constant

Bit rate                                 : 192 kb/s

Channel(s)                               : 2 channels

Channel layout                           : L R

Sampling rate                            : 48.0 kHz

Frame rate                               : 31.250 FPS (1536 SPF)

Compression mode                         : Lossy

Stream size                              : 148 MiB (2%)

Title                                    : DTS

Language                                 : English

Service kind                             : Complete Main

Default                                  : No

Forced                                   : No



Menu

00:00:00.000                             : :00:00:00.000

00:05:35.836                             : :00:05:35.752

00:09:41.289                             : :00:09:41.289

00:14:50.598                             : :00:14:50.515

00:18:29.108                             : :00:18:29.108

00:21:45.638                             : :00:21:45.554

00:26:26.251                             : :00:26:26.126

00:29:56.920                             : :00:29:56.837

00:33:48.818                             : :00:33:48.777

00:38:34.020                             : :00:38:33.937

00:43:30.024                             : :00:43:29.982

00:45:58.839                             : :00:45:58.756

00:49:12.533                             : :00:49:12.449

00:54:27.055                             : :00:54:26.972

00:57:44.836                             : :00:57:44.836

01:03:46.614                             : :01:03:46.614

01:07:32.840                             : :01:07:32.799

01:12:42.608                             : :01:12:42.567

01:17:58.215                             : :01:17:58.132

01:21:27.591                             : :01:21:27.549

01:25:31.585                             : :01:25:31.585

01:29:13.932                             : :01:29:13.932

01:31:11.883                             : :01:31:11.883

01:35:43.488                             : :01:35:43.404

01:38:15.223                             : :01:38:15.181

01:41:45.016                             : :01:41:44.932

01:43:45.720                             : :01:43:45.594

01:46:03.440                             : :01:46:03.357









Discussion

Comments 0

Post Your Comment

Files in this torrent

FILENAMESIZE
dxjdrxju564wu6w4i4.jpg36.7 KB
Gli occhi della notte-Wait until dark (1967) ITA-ENG Ac3 2.0 BDRip 1080p H264 [ArMor].mkv7.4 GB

Alternative Torrents for 'Gli occhi della notteWait until dark ENG'.

There are no alternative torrents found.