Wu Xia 2 The Code - Immortal Combat The Cod (2019) From Wolf1245 & MediaBit

Torrent Details


Wu Xia 2 the Code - Immortal Combat the Cod (2019) from wolf1245 & MediaBit

NAME
Wu Xia 2 the Code - Immortal Combat the Cod (2019) from wolf1245 & MediaBit.torrent
CATEGORY
Movies
INFOHASH
d15df9b690f77913c697bf176e3a933112b3b640
SIZE
1.4 GB in 1 file
ADDED
Uploaded on 31-10-2020 by our crawler pet called "Spidey".
SWARM
1 seeders & 0 peers
RATING
No votes yet.

Please login to vote for this torrent.


Description

Бессмертная битва. Код / Immortal Combat the Cod / Wu Xia 2 the Code









Информация о фильме:

Название: Бессмертная битва. Код

Оригинальное название: Immortal Combat the Cod / Wu Xia 2 the Code

Год выхода: 2019

Жанр: Фантастика, боевик

Режиссер: Джонни Ву

В ролях: Бен Згорецки, Кристл Пэйнтер Коллинз, Кейт Коллинз II, Мэтт Кейн, Джерри Сур, Бен Гартон, Й. Чан, Лиланд Леже, Лиза Й. Вонг, Уэйн Вонг



Описание: В недалёком будущем человечество начинает умирать от нехватки воздуха. В лаборатории медицинской корпорации создаётся таинственный код, который поможет спасти людей, но за ним ведут охоту разные кланы, их цель - управление миром. Спасти код и вернуть жизнь людям сможет только один человек.







Страна: США

Студия: Media Design Imaging

Продолжительность: 01:19:35

Перевод: Любительский (многоголосый, закадровый) - Синема УС







Информация о файле:

Кодек: AVC

Формат: MKV

Качество: WEB-DLRip-AVC

Видео: MPEG-4 AVC, 1024x426 (2.40:1), 24.000 fps, 2391 kbps, 0.228

Аудио RU: AC3, 2 ch, 48 kHz, 192 kbps

Субтитры: Английские

Навигация по главам: Да







Скриншоты

MediaInfox264 info: frame I:969 Avg QP:14.75 size: 71917

x264 info: frame P:32852 Avg QP:17.93 size: 23459

x264 info: frame B:80779 Avg QP:19.87 size: 7266

x264 info: consecutive B-frames: 4.7% 6.8% 8.7% 61.4% 7.0% 9.5% 0.7% 0.6% 0.1% 0.1% 0.1% 0.3%

================================

General

Unique ID : 64339700299243285378605434274999868723 (0x3067602383EE475F183B5549BCFE9D33)

Complete name : D:uTorrentРипы_от_wolf1245_MediaBitWu Xia 2 the Code - Immortal Combat the Cod (2019) from wolf1245 & MediaBit .mkv

Format : Matroska

Format version : Version 4

File size : 1.44 GiB

Duration : 1 h 19 min

Overall bit rate : 2 585 kb/s

Movie name : Wu Xia 2 the Code / Immortal Combat the Cod (2019) from wolf1245 & MediaBit

Encoded date : UTC 2020-10-31 21:00:22

Writing application : mkvmerge v51.0.0 ('I Wish') 64-bit

Writing library : libebml v1.4.0 + libmatroska v1.6.2



Video

ID : 1

Format : AVC

Format/Info : Advanced Video Codec

Format profile : [email protected]

Format settings : CABAC / 11 Ref Frames

Format settings, CABAC : Yes

Format settings, Reference frames : 11 frames

Codec ID : V_MPEG4/ISO/AVC

Duration : 1 h 19 min

Bit rate : 2 391 kb/s

Width : 1 024 pixels

Height : 426 pixels

Display aspect ratio : 2.40:1

Frame rate mode : Constant

Frame rate : 24.000 FPS

Color space : YUV

Chroma subsampling : 4:2:0

Bit depth : 8 bits

Scan type : Progressive

Bits/(Pixel*Frame) : 0.228

Stream size : 1.33 GiB (93%)

Title : wolf1245 & MediaBit

Writing library : x264 core 157 r2958 57baac4

Encoding settings : cabac=1 / ref=11 / deblock=1:-3:-2 / analyse=0x3:0x133 / me=umh / subme=11 / psy=1 / psy_rd=1.03:0.03 / mixed_ref=1 / me_range=48 / chroma_me=1 / trellis=2 / 8x8dct=1 / cqm=0 / deadzone=21,11 / fast_pskip=0 / chroma_qp_offset=-3 / threads=10 / lookahead_threads=2 / sliced_threads=0 / nr=0 / decimate=0 / interlaced=0 / bluray_compat=0 / constrained_intra=0 / bframes=11 / b_pyramid=2 / b_adapt=2 / b_bias=0 / direct=3 / weightb=1 / open_gop=0 / weightp=2 / keyint=240 / keyint_min=24 / scenecut=40 / intra_refresh=0 / rc_lookahead=100 / rc=2pass / mbtree=0 / bitrate=2391 / ratetol=1.0 / qcomp=0.60 / qpmin=0 / qpmax=69 / qpstep=4 / cplxblur=20.0 / qblur=0.5 / vbv_maxrate=50000 / vbv_bufsize=62500 / nal_hrd=none / filler=0 / ip_ratio=1.40 / pb_ratio=1.30 / aq=1:0.80

Language : English

Default : Yes

Forced : No

Color range : Limited

Color primaries : BT.709

Transfer characteristics : BT.709

Matrix coefficients : BT.709



Audio

ID : 2

Format : AC-3

Format/Info : Audio Coding 3

Commercial name : Dolby Digital

Codec ID : A_AC3

Duration : 1 h 19 min

Bit rate mode : Constant

Bit rate : 192 kb/s

Channel(s) : 2 channels

Channel layout : L R

Sampling rate : 48.0 kHz

Frame rate : 31.250 FPS (1536 SPF)

Compression mode : Lossy

Stream size : 109 MiB (7%)

Title : MVO [Синема УС] MediaBit

Language : Russian

Service kind : Complete Main

Default : Yes

Forced : No



Text

ID : 3

Format : UTF-8

Codec ID : S_TEXT/UTF8

Codec ID/Info : UTF-8 Plain Text

Duration : 1 h 19 min

Bit rate : 53 b/s

Count of elements : 1117

Stream size : 31.1 KiB (0%)

Language : English

Default : No

Forced : No



Menu

00:00:00.000 : :1

00:07:30.000 : :2

00:12:43.000 : :3

00:19:57.000 : :4

00:26:43.000 : :5

00:34:04.000 : :6

00:40:22.000 : :7

00:46:42.000 : :8

00:53:55.000 : :9

00:59:51.000 : :10

01:06:23.000 : :11

01:15:27.000 : :12







Релиз от: & &

Discussion

Comments 0

Post Your Comment

Files in this torrent

FILENAMESIZE
Wu Xia 2 the Code - Immortal Combat the Cod (2019) from wolf1245 & MediaBit .mkv1.4 GB

Alternative Torrents for 'Wu Xia Code Immortal Combat Cod from wolf MediaBit'.

There are no alternative torrents found.