The Addams Family (2019) 1080p 5 1 - 2 0 X264 Phun Psyz

Torrent Details

The Addams Family (2019) 1080p 5 1 - 2 0 x264 Phun Psyz
The Addams Family (2019) 1080p 5 1 - 2 0 x264 Phun Psyz

NAME
The Addams Family (2019) 1080p 5 1 - 2 0 x264 Phun Psyz.torrent
CATEGORY
Movies
INFOHASH
9418c9084f76d1477d0e66d0fd5e7a9ae08c4151
SIZE
1.3 GB in 1 file
ADDED
Uploaded on 01-11-2020 by our crawler pet called "Spidey".
SWARM
0 seeders & 0 peers
RATING
No votes yet.

Please login to vote for this torrent.


Description

www.imdb.com/title/tt1620981/

The eccentrically macabre family moves to a bland suburb where Wednesday Addams' friendship with the daughter of a hostile and conformist local reality show host exacerbates conflict between the families.

Source: FGT (Remux)



Format : MPEG-4
Format profile : Base Media / Version 2
Codec ID : mp42 (isom/iso2/avc1/mp41)
File size : 1.34 GiB
Duration : 1 h 27 min
Overall bit rate mode : Variable
Overall bit rate : 2 208 kb/s
Writing application : HandBrake 1.3.3 2020061300

Video
ID : 1
Format : AVC
Format/Info : Advanced Video Codec
Format profile : [email protected]
Format settings : CABAC / 1 Ref Frames
Format settings, CABAC : Yes
Format settings, Reference : 1 frame
Codec ID : avc1
Codec ID/Info : Advanced Video Coding
Duration : 1 h 27 min
Bit rate : 1 720 kb/s
Width : 1 920 pixels
Height : 1 040 pixels
Display aspect ratio : 1.85:1
Frame rate mode : Variable
Frame rate : 23.976 (24000/1001) FPS
Minimum frame rate : 23.974 FPS
Maximum frame rate : 23.981 FPS
Color space : YUV
Chroma subsampling : 4:2:0
Bit depth : 8 bits
Scan type : Progressive
Bits/(Pixel*Frame) : 0.036
Stream size : 1.05 GiB (78%)
Writing library : x264 core 157 r2935 545de2f
Color primaries : BT.709
Transfer characteristics : BT.709
Matrix coefficients : BT.709
Menus : 5

Audio #1
ID : 2
Format : AC-3
Format/Info : Audio Coding 3
Commercial name : Dolby Digital
Codec ID : ac-3
Duration : 1 h 27 min
Bit rate mode : Constant
Bit rate : 320 kb/s
Channel(s) : 6 channels
Channel layout : L R C LFE Ls Rs
Sampling rate : 48.0 kHz
Frame rate : 31.250 FPS (1536 SPF)
Compression mode : Lossy
Stream size : 199 MiB (14%)
Language : English
Service kind : Complete Main
Default : Yes

Audio #2
ID : 3
Format : AAC LC
Format/Info : Advanced Audio Codec Low Complexity
Codec ID : mp4a-40-2
Duration : 1 h 27 min
Bit rate mode : Constant
Bit rate : 161 kb/s
Channel(s) : 2 channels
Channel layout : L R
Sampling rate : 48.0 kHz
Frame rate : 46.875 FPS (1024 SPF)
Compression mode : Lossy
Stream size : 99.9 MiB (7%)
Language : English

Text
Language : English
Default : Yes
Forced : No

Discussion

Comments 0

Post Your Comment

Files in this torrent

FILENAMESIZE
The Addams Family (2019) 1080p 5.1 - 2.0 x264 Phun Psyz.mp41.3 GB

Alternative Torrents for 'Addams Family Phun Psyz'.

TORRENT NAMEADDEDSIZESEEDSPEERSHEALTH
11/1/20201.3 GB00