KGF Chapter 1 (2018) 1080 Hindi Dubbed HDRip X264 AAC By Full4Movies

Torrent Details


KGF Chapter 1 (2018) 1080 Hindi Dubbed HDRip x264 AAC By Full4Movies

NAME
KGF Chapter 1 (2018) 1080 Hindi Dubbed HDRip x264 AAC By Full4Movies.torrent
CATEGORY
Movies
INFOHASH
6bfc59fd6e4abe732986def21fd3781f914efebf
SIZE
2.3 GB in 1 file
ADDED
Uploaded on 02-11-2020 by our crawler pet called "Spidey".
SWARM
12 seeders & 0 peers
RATING
No votes yet.

Please login to vote for this torrent.


Description

General
Complete name : KGF Chapter 1 (2018) 1080 Hindi Dubbed HDRip x264 AAC By Full4Movies.mkv
Format : Matroska
Format version : Version 4
File size : 2.25 GiB
Duration : 2 h 34 min
Overall bit rate : 2 082 kb/s
Movie name : www.Full4mMovie.cc
Encoded date : UTC 2020-11-02 06:30:53
Writing application : mkvmerge v8.0.0 ('Til The Day That I Die') 32bit
Writing library : libebml v1.3.1 + libmatroska v1.4.2

Video
ID : 1
Format : AVC
Format/Info : Advanced Video Codec
Format profile : [email protected]
Format settings : CABAC / 4 Ref Frames
Format settings, CABAC : Yes
Format settings, Reference fra : 4 frames
Codec ID : V_MPEG4/ISO/AVC
Duration : 2 h 34 min
Bit rate : 2 000 kb/s
Width : 1 920 pixels
Height : 816 pixels
Display aspect ratio : 2.35:1
Frame rate mode : Constant
Frame rate : 25.000 FPS
Color space : YUV
Chroma subsampling : 4:2:0
Bit depth : 8 bits
Scan type : Progressive
Bits/(Pixel*Frame) : 0.051
Stream size : 2.16 GiB (96%)
Writing library : x264 core 142 r2479 dd79a61
Encoding settings : cabac=1 / ref=4 / deblock=1:0:0 / analyse=0x3:0x113 / me=umh / subme=9 / psy=1 / psy_rd=1.00:0.15 / mixed_ref=1 / me_range=32 / chroma_me=1 / trellis=1 / 8x8dct=1 / cqm=0 / deadzone=21,11 / fast_pskip=1 / chroma_qp_offset=-3 / threads=48 / lookahead_threads=4 / sliced_threads=0 / nr=0 / decimate=1 / interlaced=0 / bluray_compat=0 / constrained_intra=0 / bframes=3 / b_pyramid=2 / b_adapt=2 / b_bias=0 / direct=1 / weightb=1 / open_gop=0 / weightp=2 / keyint=250 / keyint_min=25 / scenecut=40 / intra_refresh=0 / rc_lookahead=40 / rc=2pass / mbtree=1 / bitrate=2000 / ratetol=1.0 / qcomp=0.60 / qpmin=0 / qpmax=69 / qpstep=4 / cplxblur=20.0 / qblur=0.5 / ip_ratio=1.40 / aq=1:1.00
Default : Yes
Forced : No
Color range : Limited
Color primaries : BT.709
Transfer characteristics : BT.709
Matrix coefficients : BT.709

Audio
ID : 2
Format : AAC LC
Format/Info : Advanced Audio Codec Low Complexity
Codec ID : A_AAC-2
Duration : 2 h 34 min
Bit rate : 80.0 kb/s
Channel(s) : 2 channels
Channel layout : L R
Sampling rate : 44.1 kHz
Frame rate : 43.066 FPS (1024 SPF)
Compression mode : Lossy
Delay relative to video : -80 ms
Stream size : 88.6 MiB (4%)
Language : Hindi
Default : Yes
Forced : No

Screen Shoots

Discussion

Comments 0

Post Your Comment

Files in this torrent

FILENAMESIZE
KGF Chapter 1 (2018) 1080 Hindi Dubbed HDRip x264 AAC By Full4Movies.mkv2.3 GB

Alternative Torrents for 'KGF Chapter Hindi Dubbed AAC By FullMovies'.

There are no alternative torrents found.