[Deadmau- RAWS] Elfen Lied 2003 S01 Rus Eng Jap BDRip 720p YUV444p Ver Deadmauvlad

Torrent Details


[Deadmau- RAWS] Elfen Lied 2003 S01 Rus Eng Jap BDRip 720p YUV444p Ver Deadmauvlad

NAME
[Deadmau- RAWS] Elfen Lied 2003 S01 Rus Eng Jap BDRip 720p YUV444p Ver Deadmauvlad.torrent
CATEGORY
Anime
INFOHASH
ef0ea5faf4d94c0b31f14d02956e9d623034b649
SIZE
20 GB in 14 files
ADDED
Uploaded on 02-11-2020 by our crawler pet called "Spidey".
SWARM
0 seeders & 0 peers
RATING
This torrent has a bad rating! This torrent has BAD rating with 0 votes.

Please login to vote for this torrent.


Description

Название: Эльфийская песнь

Оригинальное название: Elfen Lied

Год выпуска: 2004

Жанр: ужасы, этти, сёнэн, романтика, драма

Выпущено: Япония, ARMS

Режиссер: Мамору Канбэ

Возрастное ограничение: 18+ [Контент не для детей]

В ролях: Санаэ Кобаяси, Тихиро Судзуки, Мамико Ното, Адам Конлон, Нэнси Новотны, Кира Венсан-Дави, Эмико Хагивара, Юки Мацуока, Хитоми Набатамэ, Осаму Хосой и др.



Перевод #1: Профессиональный многоголосый закадровый (MC Entertainment)[Лицензия] [S01]

Перевод #2: Любительский многоголосый закадровый (Anilibria)[S01+ Sp]

Перевод #1.1:Любительский двухголосый, закадровый (Majestic-Kun & Marie Bibika) [спешл]

Перевод #1.2:Любительский одноголосый, закадровый (DobrySkazochnik) [спешл]

Продолжительность: 14х ~ 00:25:00











О фильме: Диклониусы — побочная, мутировавшая ветвь людей, избранная, кажется, самим Богом, чтобы положить конец человечеству. От обычных людей их отличают небольшие рожки на голове и то, что они владеют как бы «шестым чувством», дающим им способность к телекинезу. Именно из-за этой опасной силы правительство отлавливает их и помещает в специальные лаборатории, где они подвергаются жестоким экспериментам.

Люси — юная и психически неуравновешенная девушка-диклониус, которой удаётся избавиться от сдерживающих её пути и предпринять попытку к бегству, по пути жестоко убивая охранников лаборатории: только выстрелив ей в голову из крупнокалиберного оружия, пулю которого она не успевает отклонить, охрана смогла нанести ей ущерб. Однако Люси удаётся выжить, упав с утёса в океан и дрейфуя некоторое время, пока двое молодых людей, Кота и Юка, не находят её на пляже. Выстрел в голову вызвал потерю памяти и речевую дисфункцию: единственное, что она в состоянии сказать — междометие «ню», в честь которого нашедшие и окрестили её. В конце концов Кота отводит Люси к себе домой и позволяет ей жить там... Однако похоже на то, что тёмная сторона Люси никуда не исчезла...



















Файл

Кодек: AVC

Качество: BDRip 720p [10 bit Ver! High 4:4:4 [email protected]]

Видео: 1280x720 (16:9), 23.976 fps, 5 413 kb/s (0.245 bit/pixel)

Аудио #1: AC3, 48.0 kHz, 6 ch, 384 kb/s, CBR| | MC Entertainment

Аудио #2: FLAC, 48.0 kHz, 2 ch, 1515 kb/s, VBR | | Anilibria

Аудио #3: AAC, 44.1 kHz, 6 ch, 168 kb/s, VBR | | English DUB

Аудио #4: DTS, 48.0 kHz, 6 ch, 756 kb/s, CBR | | Japan (Оригинал)

Субтитры: Русские (Полные / надписи), English



Список эпизодов



01 Встреча

02 Уничтожение

03 В глубине

04 Столкновение

05 Приём

06 Душевное тепло

07 Неожиданная встреча

08 Начало

09 Драгоценные воспоминания

10 Дитя

10.5 (14.) Под дождём

11 Смешение

12 Потрясение

13 Озарение



MediaInfoGeneral

Unique ID : 292743201414902190035596220449785652586 (0xDC3C4A2DD8E926C7D4C30BB8E8B8256A)

Complete name : [Deadmau- RAWS] Elfen.Lied.2003.S01.Rus.Eng.Jap.BDRip.720p.10bit.Ver.Deadmauvlad.Ep.01.mkv

Format : Matroska

Format version : Version 4

File size : 1.45 GiB

Duration : 25 min 12 s

Overall bit rate mode : Variable

Overall bit rate : 8 241 kb/s

Movie name : [Deadmau- RAWS] Elfen.Lied.2003.S01.Rus.Eng.Jap.BDRip.720p.10bit.Ver.Deadmauvlad

Encoded date : UTC 2020-11-01 12:33:31

Writing application : mkvmerge v49.0.0 ('Sick Of Losing Soulmates') 32-bit

Writing library : libebml v1.4.0 + libmatroska v1.6.1

Attachments : BoisterBlack.TTF / ARABOLIC.TTF / jester.ttf



Video

ID : 1

Format : AVC

Format/Info : Advanced Video Codec

Format profile : High 4:4:4 [email protected]

Format settings : CABAC / 7 Ref Frames

Format settings, CABAC : Yes

Format settings, ReFrames : 7 frames

Codec ID : V_MPEG4/ISO/AVC

Duration : 25 min 12 s

Bit rate : 5 413 kb/s

Width : 1 280 pixels

Height : 720 pixels

Display aspect ratio : 16:9

Frame rate mode : Constant

Frame rate : 23.976 (24000/1001) FPS

Color space : YUV

Chroma subsampling : 4:4:4

Bit depth : 10 bits

Scan type : Progressive

Bits/(Pixel*Frame) : 0.245

Stream size : 976 MiB (66%)

Title : Encoder By Deadmauvlad

Writing library : x264 core 152 r2851 ba24899

Encoding settings : cabac=1 / ref=7 / deblock=1:-2:-2 / analyse=0x1:0x111 / me=umh / subme=10 / psy=1 / psy_rd=0.90:0.00 / mixed_ref=0 / me_range=36 / chroma_me=1 / trellis=2 / 8x8dct=0 / cqm=0 / deadzone=21,11 / fast_pskip=1 / chroma_qp_offset=2 / threads=16 / lookahead_threads=4 / sliced_threads=0 / nr=0 / decimate=1 / interlaced=0 / bluray_compat=0 / constrained_intra=0 / bframes=16 / b_pyramid=2 / b_adapt=2 / b_bias=0 / direct=1 / weightb=1 / open_gop=0 / weightp=2 / keyint=250 / keyint_min=23 / scenecut=40 / intra_refresh=0 / rc_lookahead=60 / rc=2pass / mbtree=1 / bitrate=5413 / ratetol=1.0 / qcomp=0.74 / qpmin=8 / qpmax=81 / qpstep=4 / cplxblur=20.0 / qblur=0.5 / ip_ratio=1.50 / aq=2:0.90

Language : English

Default : Yes

Forced : No

Color range : Limited

Color primaries : BT.709

Transfer characteristics : BT.709

Matrix coefficients : BT.709



Audio #1

ID : 2

Format : AC-3

Format/Info : Audio Coding 3

Commercial name : Dolby Digital

Codec ID : A_AC3

Duration : 25 min 12 s

Bit rate mode : Constant

Bit rate : 384 kb/s

Channel(s) : 6 channels

Channel layout : L R C LFE Ls Rs

Sampling rate : 48.0 kHz

Frame rate : 31.250 FPS (1536 SPF)

Bit depth : 16 bits

Compression mode : Lossy

Stream size : 69.2 MiB (5%)

Title : MC Entertainment

Language : Russian

Default : No

Forced : No



Audio #2

ID : 3

Format : FLAC

Format/Info : Free Lossless Audio Codec

Codec ID : A_FLAC

Duration : 25 min 12 s

Bit rate mode : Variable

Bit rate : 1 515 kb/s

Channel(s) : 2 channels

Channel layout : L R

Sampling rate : 48.0 kHz

Frame rate : 11.719 FPS (4096 SPF)

Bit depth : 24 bits

Compression mode : Lossless

Stream size : 273 MiB (18%)

Title : AniLibria

Writing library : libFLAC 20170101 (UTC 2017-01-01)

Language : Russian

Default : No

Forced : No



Audio #3

ID : 4

Format : AAC LC SBR

Format/Info : Advanced Audio Codec Low Complexity with Spectral Band Replication

Commercial name : HE-AAC

Format settings : Explicit

Codec ID : A_AAC-2

Duration : 25 min 2 s

Bit rate : 168 kb/s

Channel(s) : 6 channels

Channel layout : C L R Ls Rs LFE

Sampling rate : 44.1 kHz

Frame rate : 21.533 FPS (2048 SPF)

Compression mode : Lossy

Delay relative to video : 29 ms

Stream size : 30.1 MiB (2%)

Title : Dolby 5.1 English

Language : English

Default : No

Forced : No



Audio #4

ID : 5

Format : DTS

Format/Info : Digital Theater Systems

Codec ID : A_DTS

Duration : 25 min 12 s

Bit rate mode : Constant

Bit rate : 756 kb/s

Channel(s) : 6 channels

Channel layout : C L R Ls Rs LFE

Sampling rate : 48.0 kHz

Frame rate : 93.750 FPS (512 SPF)

Bit depth : 24 bits

Compression mode : Lossy

Stream size : 136 MiB (9%)

Language : Japanese

Default : No

Forced : No



Text #1

ID : 6

Format : ASS

Codec ID : S_TEXT/ASS

Codec ID/Info : Advanced Sub Station Alpha

Duration : 24 min 58 s

Bit rate : 38 b/s

Count of elements : 71

Compression mode : Lossless

Stream size : 7.04 KiB (0%)

Title : Надписи [AniLibria]

Language : Russian

Default : No

Forced : No



Text #2

ID : 7

Format : ASS

Codec ID : S_TEXT/ASS

Codec ID/Info : Advanced Sub Station Alpha

Duration : 24 min 58 s

Bit rate : 118 b/s

Count of elements : 302

Compression mode : Lossless

Stream size : 21.7 KiB (0%)

Title : Субтитры [AniLibria]

Language : Russian

Default : No

Forced : No



Text #3

ID : 8

Format : ASS

Codec ID : S_TEXT/ASS

Codec ID/Info : Advanced Sub Station Alpha

Duration : 24 min 54 s

Bit rate : 91 b/s

Count of elements : 247

Compression mode : Lossless

Stream size : 16.8 KiB (0%)

Language : English

Default : No

Forced : No



Скриншоты



Жестокие кадры из данного аниме 18+



Релиз / Автор рипа: Deadmauvlad ^_^



Discussion

Comments 0

Post Your Comment

Files in this torrent

FILENAMESIZE
[Deadmau- RAWS] Elfen.Lied.2003.S01.Rus.Eng.Jap.BDRip.720p.10bit.Ver.Deadmauvlad.Ep.01.mkv1.5 GB
[Deadmau- RAWS] Elfen.Lied.2003.S01.Rus.Eng.Jap.BDRip.720p.10bit.Ver.Deadmauvlad.Ep.02.mkv1.5 GB
[Deadmau- RAWS] Elfen.Lied.2003.S01.Rus.Eng.Jap.BDRip.720p.10bit.Ver.Deadmauvlad.Ep.03.mkv1.4 GB
[Deadmau- RAWS] Elfen.Lied.2003.S01.Rus.Eng.Jap.BDRip.720p.10bit.Ver.Deadmauvlad.Ep.04.mkv1.4 GB
[Deadmau- RAWS] Elfen.Lied.2003.S01.Rus.Eng.Jap.BDRip.720p.10bit.Ver.Deadmauvlad.Ep.05.mkv1.4 GB
[Deadmau- RAWS] Elfen.Lied.2003.S01.Rus.Eng.Jap.BDRip.720p.10bit.Ver.Deadmauvlad.Ep.06.mkv1.4 GB
[Deadmau- RAWS] Elfen.Lied.2003.S01.Rus.Eng.Jap.BDRip.720p.10bit.Ver.Deadmauvlad.Ep.07.mkv1.4 GB
[Deadmau- RAWS] Elfen.Lied.2003.S01.Rus.Eng.Jap.BDRip.720p.10bit.Ver.Deadmauvlad.Ep.08.mkv1.4 GB
[Deadmau- RAWS] Elfen.Lied.2003.S01.Rus.Eng.Jap.BDRip.720p.10bit.Ver.Deadmauvlad.Ep.09.mkv1.4 GB
[Deadmau- RAWS] Elfen.Lied.2003.S01.Rus.Eng.Jap.BDRip.720p.10bit.Ver.Deadmauvlad.Ep.10.5.OVA.mkv1.4 GB
[Deadmau- RAWS] Elfen.Lied.2003.S01.Rus.Eng.Jap.BDRip.720p.10bit.Ver.Deadmauvlad.Ep.10.mkv1.4 GB
[Deadmau- RAWS] Elfen.Lied.2003.S01.Rus.Eng.Jap.BDRip.720p.10bit.Ver.Deadmauvlad.Ep.11.mkv1.4 GB
[Deadmau- RAWS] Elfen.Lied.2003.S01.Rus.Eng.Jap.BDRip.720p.10bit.Ver.Deadmauvlad.Ep.12.mkv1.4 GB
[Deadmau- RAWS] Elfen.Lied.2003.S01.Rus.Eng.Jap.BDRip.720p.10bit.Ver.Deadmauvlad.Ep.13.END.mkv1.4 GB

Alternative Torrents for 'Deadmau RAWS Elfen Lied Rus Eng Jap YUVp Ver Deadmauvlad'.

There are no alternative torrents found.