She Is The One 1996 1080p BluRay X264-PSYCHD

Torrent Details

She Is the One 1996 1080p BluRay x264-PSYCHD

NAME
She Is the One 1996 1080p BluRay x264-PSYCHD.torrent
CATEGORY
Movies
INFOHASH
c6f2990f2173f8581e82994fd4346f50893e1c39
SIZE
6.6 GB in 3 files
ADDED
Uploaded on 06-11-2020 by our crawler pet called "Spidey".
SWARM
0 seeders & 0 peers
RATING
No votes yet.

Please login to vote for this torrent.


Description

帖子完整标题:爱是唯一/另类情人 Shes.the.One.1996.1080p.BluRay.x264-PSYCHD 6.55GB  故事讲述两兄弟,一个有女友,一个有太太,却因为一个女人出现,令两兄弟不但对爱人不忠,更成为爱情对手。    一句话评论    A romantic comedy about two brothers... and the one thing that came between them.    From the Director of "The Brothers McMullen"    幕后制作    继《The Brothers McMullen》之后,Ed Burns以本片再次证明了其导演才华与其演技相比毫不逊色。在本片中,Ed Burns扮演大哥Mickey,而Cameron Diaz饰演的情人角色与Jennifer Aniston饰演的牺牲品角色各有精彩之处,深刻勾勒出婚姻生活中的人性百态。Video ID : 1 Format : AVC Format/Info : Advanced Video Codec Format profile : [email protected] Format settings : CABAC / 4 Ref Frames Format settings, CABAC : Yes Format settings, Reference frames : 4 frames Codec ID : V_MPEG4/ISO/AVC Duration : 1 h 36 min Bit rate : 8 252 kb/s Width : 1 920 pixels Height : 1 040 pixels Display aspect ratio : 1.85:1 Frame rate mode : Constant Frame rate : 23.976 (24000/1001/189150) FPS Color space : YUV Chroma subsampling : 4:2:0 Bit depth : 8 bits Scan type : Progressive Bits/(Pixel*Frame) : 0.172 Stream size : 5.41 GiB (83%) Writing library : x264 core 120 r2164 da19765 Encoding settings : cabac=1 / ref=4 / deblock=1:0:0 / analyse=0x3:0x113 / me=umh / subme=8 / psy=1 / psy_rd=1.00:0.00 / mixed_ref=1 / me_range=16 / chroma_me=1 / trellis=1 / 8x8dct=1 / cqm=0 / deadzone=21,11 / fast_pskip=1 / chroma_qp_offset=-2 / threads=12 / sliced_threads=0 / nr=0 / decimate=1 / interlaced=0 / bluray_compat=0 / constrained_intra=0 / bframes=3 / b_pyramid=2 / b_adapt=2 / b_bias=0 / direct=3 / weightb=1 / open_gop=0 / weightp=2 / keyint=240 / keyint_min=24 / scenecut=40 / intra_refresh=0 / rc_lookahead=50 / rc=2pass / mbtree=1 / bitrate=8252 / ratetol=1.0 / qcomp=0.60 / qpmin=0 / qpmax=69 / qpstep=4 / cplxblur=20.0 / qblur=0.5 / ip_ratio=1.40 / aq=1:1.00 Language : English Default : Yes Forced : No Audio ID : 2 Format : DTS Format/Info : Digital Theater Systems Codec ID : A_DTS Duration : 1 h 36 min Bit rate mode : Constant Bit rate : 1 509 kb/s Channel(s) : 6 channels Channel(s)_Original : 2 channels ChannelLayout_Original : Lt Rt Sampling rate : 48.0 kHz Frame rate : 93.750 FPS (512 SPF) Bit depth : 24 bits Compression mode : Lossy Stream size : 1.01 GiB (15%) Language : English Default : Yes Forced : No Text ID : 3 Format : UTF-8 Codec ID : S_TEXT/UTF8 Codec ID/Info : UTF-8 Plain Text Language : English Default : No Forced : No Menu 00:00:00.000 : en:00:00:00.000 00:02:33.570 : en:00:02:33.570 00:05:32.666 : en:00:05:32.666 00:08:18.289 : en:00:08:18.289 00:10:26.668 : en:00:10:26.668 00:15:14.705 : en:00:15:14.705 00:19:04.352 : en:00:19:04.352 00:21:07.641 : en:00:21:07.641 00:23:48.010 : en:00:23:48.010 00:32:58.727 : en:00:32:58.727 00:34:52.132 : en:00:34:52.132 00:41:47.714 : en:00:41:47.714 00:46:51.475 : en:00:46:51.475 00:50:59.098 : en:00:50:59.098 00:53:06.892 : en:00:53:06.892 00:59:58.220 : en:00:59:58.220 01:05:44.691 : en:01:05:44.691 01:10:12.708 : en:01:10:12.708 01:12:46.946 : en:01:12:46.946 01:14:42.436 : en:01:14:42.436 01:20:27.698 : en:01:20:27.698 01:26:27.307 : en:01:26:27.307 01:28:32.766 : en:01:28:32.766 01:31:42.914 : en:01:31:42.914

Discussion

Comments 0

Post Your Comment

Files in this torrent

FILENAMESIZE
RARBG.txt31 B
she.is.the.one.1996.1080p.bluray.x264-psychd.mkv6.6 GB
she.is.the.one.1996.1080p.bluray.x264-psychd.nfo5.7 KB

Alternative Torrents for 'She Is One BluRay PSYCHD'.

TORRENT NAMEADDEDSIZESEEDSPEERSHEALTH
11/6/20206.6 GB00