The Boondock Saints 2 All Saints Day 2009 Directors Cut 1080p BluRay X264-AMIABLE

Torrent Details


The Boondock Saints 2 All Saints Day<span style=color:#777> 2009</span> Directors Cut 1080p BluRay X264-AMIABLE

NAME
The Boondock Saints 2 All Saints Day 2009 Directors Cut 1080p BluRay X264-AMIABLE.torrent
CATEGORY
Movies
INFOHASH
51fc14eb72737a3e2d79a05bb86fe84283a0730f
SIZE
9.8 GB in 3 files
ADDED
Uploaded on 06-11-2020 by our crawler pet called "Spidey".
SWARM
0 seeders & 2 peers
RATING
No votes yet.

Please login to vote for this torrent.


Description

帖子完整标题:处刑人2/另类圣徒2 The.Boondock.Saints.II.2009.DC.1080p.BluRay.X264-AMIABLE 9.83GB  波士顿,一位深受爱戴的牧师神秘被杀,子弹交错穿过脑壳,死相极为惨烈,传言处刑人所为。负责此案的依旧是警察格林利、达菲和多利,但他们对此一筹莫展。幸有智慧性感的FBI特工尤妮斯?布鲁姆(朱莉?本茨 Julie Benz 饰)破解了处刑人的杀人手法。因10年前波士顿血案,异卵双生兄弟康纳(肖恩?派特里克?弗兰纳里 Sean Patrick Flanery 饰)和墨菲(诺曼?瑞杜斯 Norman Reedus 饰),随领袖父亲诺亚(比利?康诺利 Billy Connolly 饰)隐居在爱尔兰的乡村。此案一出,两兄弟削发明志,重新出山。期间,他们收服了墨西哥人罗密欧(小克利夫顿?克林斯 Clifton Collins Jr. 饰)。后者凭借机灵的头脑、出众的拳脚,战胜了人高马大的对手。虽然将对手置于死地有些残酷,但是兄弟俩觉得对味,并设计拉他入伙。这组搭档与美女特工都踏上征讨处刑人的危险之旅……Video ID : 1 Format : AVC Format/Info : Advanced Video Codec Format profile : [email protected] Format settings : CABAC / 5 Ref Frames Format settings, CABAC : Yes Format settings, Reference frames : 5 frames Codec ID : V_MPEG4/ISO/AVC Duration : 2 h 18 min Bit rate : 8 695 kb/s Width : 1 920 pixels Height : 816 pixels Display aspect ratio : 2.35:1 Frame rate mode : Constant Frame rate : 23.976 (24000/1001/189150) FPS Color space : YUV Chroma subsampling : 4:2:0 Bit depth : 8 bits Scan type : Progressive Bits/(Pixel*Frame) : 0.231 Stream size : 8.18 GiB (83%) Writing library : x264 core 135 r2345 f0c1c53 Encoding settings : cabac=1 / ref=5 / deblock=1:-3:-3 / analyse=0x3:0x113 / me=umh / subme=8 / psy=1 / psy_rd=1.00:0.00 / mixed_ref=1 / me_range=16 / chroma_me=1 / trellis=1 / 8x8dct=1 / cqm=0 / deadzone=21,11 / fast_pskip=1 / chroma_qp_offset=-2 / threads=12 / lookahead_threads=2 / sliced_threads=0 / nr=0 / decimate=1 / interlaced=0 / bluray_compat=0 / constrained_intra=0 / bframes=3 / b_pyramid=2 / b_adapt=2 / b_bias=0 / direct=3 / weightb=1 / open_gop=0 / weightp=2 / keyint=240 / keyint_min=24 / scenecut=40 / intra_refresh=0 / rc_lookahead=50 / rc=2pass / mbtree=1 / bitrate=8695 / ratetol=1.0 / qcomp=0.60 / qpmin=0 / qpmax=69 / qpstep=4 / cplxblur=20.0 / qblur=0.5 / ip_ratio=1.40 / aq=1:1.00 Language : English Default : Yes Forced : No Audio ID : 2 Format : DTS Format/Info : Digital Theater Systems Codec ID : A_DTS Duration : 2 h 18 min Bit rate mode : Constant Bit rate : 1 509 kb/s Channel(s) : 6 channels Channel layout : C L R Ls Rs LFE Sampling rate : 48.0 kHz Frame rate : 93.750 FPS (512 SPF) Bit depth : 24 bits Compression mode : Lossy Stream size : 1.45 GiB (15%) Language : English Default : Yes Forced : No Text #1 ID : 3 Format : UTF-8 Codec ID : S_TEXT/UTF8 Codec ID/Info : UTF-8 Plain Text Title : Forced Language : English Default : Yes Forced : No Text #2 ID : 4 Format : UTF-8 Codec ID : S_TEXT/UTF8 Codec ID/Info : UTF-8 Plain Text Language : English Default : No Forced : No Text #3 ID : 5 Format : UTF-8 Codec ID : S_TEXT/UTF8 Codec ID/Info : UTF-8 Plain Text Title : SDH Language : English Default : No Forced : No Menu 00:00:00.000 : en:00:00:00.000 00:07:01.671 : en:00:07:01.671 00:22:01.028 : en:00:22:01.028 00:28:57.069 : en:00:28:57.069 00:39:25.655 : en:00:39:25.655 00:46:50.307 : en:00:46:50.307 00:55:50.055 : en:00:55:50.055 00:59:18.597 : en:00:59:18.597 01:08:42.827 : en:01:08:42.827 01:19:46.532 : en:01:19:46.532 01:26:13.418 : en:01:26:13.418 01:36:50.805 : en:01:36:50.805 01:41:46.600 : en:01:41:46.600 01:48:14.613 : en:01:48:14.613 01:56:05.917 : en:01:56:05.917 02:03:23.896 : en:02:03:23.896

Discussion

Comments 0

Post Your Comment

Files in this torrent

FILENAMESIZE
RARBG.txt31 B
The.Boondock.Saints.2.All.Saints.Day.2009.Directors.Cut.1080p.BluRay.X264-AMIABLE.mkv9.8 GB
The.Boondock.Saints.2.All.Saints.Day.2009.Directors.Cut.1080p.BluRay.X264-AMIABLE.nfo6 KB

Alternative Torrents for 'Boondock Saints All Saints Day Directors Cut BluRay AMIABLE'.

TORRENT NAMEADDEDSIZESEEDSPEERSHEALTH
11/6/20209.8 GB02