Addams Family 1991 1080p BluRay X264-AMIABLE

Torrent Details

Addams Family 1991 1080p BluRay X264-AMIABLE

NAME
Addams Family 1991 1080p BluRay X264-AMIABLE.torrent
CATEGORY
Movies
INFOHASH
13833324660d287fdafeadba830e626db79be9b1
SIZE
7.7 GB in 3 files
ADDED
Uploaded on 06-11-2020 by our crawler pet called "Spidey".
SWARM
0 seeders & 0 peers
RATING
This torrent has a bad rating! This torrent has BAD rating with 0 votes.

Please login to vote for this torrent.


Description

帖子完整标题:亚当斯一家/爱登士家庭 The.Addams.Family.1991.1080p.BluRay.X264-AMIABLE 7.65GB  亚当斯庄园里住着一个典型哥特式家庭。戈梅斯(劳尔·朱力亚 Raul Julia饰)和妻子(安杰丽卡·休斯顿 Anjelica Huston饰)终年生活在这里,到处弥漫阴郁腐败的气息。二人感情如蜜,有一双喜欢玩谋杀游戏的儿女。戈梅斯的心里,却埋藏着一个伤疤。那就是他曾经和哥哥费斯特失和,费斯特已经失踪25年,戈梅特仍然放不下对哥哥的惦念。    一心要夺取亚当斯庄园和这里的财富的母亲有一个儿子戈登(克里斯托弗·洛伊德 Christopher Lloyd饰),貌相跟费斯特相向。于是,一场阴谋上演了,她教唆戈登佯装费斯特潜入亚当斯庄园,利用戈梅斯的兄弟情一步一步地夺取庄园。    果然,戈登的到来不仅使戈梅斯大为惊喜,他渐渐融入这里的家庭生活,戈梅斯一家也随之陷入危险的泥沼中。当他们被夺走家产,凄苦沦落时,事情又有了峰回路转的变化。◎获奖情况  第64届奥斯卡金像奖 ?(1992)  最佳服装设计(提名) 露丝·迈尔斯Video ID : 1 Format : AVC Format/Info : Advanced Video Codec Format profile : [email protected] Format settings : CABAC / 4 Ref Frames Format settings, CABAC : Yes Format settings, Reference frames : 4 frames Codec ID : V_MPEG4/ISO/AVC Duration : 1 h 39 min Bit rate : 9 452 kb/s Width : 1 920 pixels Height : 1 032 pixels Display aspect ratio : 1.85:1 Frame rate mode : Constant Frame rate : 23.976 (24000/1001/189150) FPS Color space : YUV Chroma subsampling : 4:2:0 Bit depth : 8 bits Scan type : Progressive Bits/(Pixel*Frame) : 0.199 Stream size : 6.44 GiB (84%) Writing library : x264 core 138 r2358 9e941d1 Encoding settings : cabac=1 / ref=4 / deblock=1:-3:-3 / analyse=0x3:0x113 / me=umh / subme=8 / psy=1 / psy_rd=1.00:0.00 / mixed_ref=1 / me_range=16 / chroma_me=1 / trellis=1 / 8x8dct=1 / cqm=0 / deadzone=21,11 / fast_pskip=1 / chroma_qp_offset=-2 / threads=12 / lookahead_threads=2 / sliced_threads=0 / nr=0 / decimate=1 / interlaced=0 / bluray_compat=0 / constrained_intra=0 / bframes=3 / b_pyramid=2 / b_adapt=2 / b_bias=0 / direct=3 / weightb=1 / open_gop=0 / weightp=2 / keyint=240 / keyint_min=24 / scenecut=40 / intra_refresh=0 / rc_lookahead=50 / rc=2pass / mbtree=1 / bitrate=9452 / ratetol=1.0 / qcomp=0.60 / qpmin=0 / qpmax=69 / qpstep=4 / cplxblur=20.0 / qblur=0.5 / ip_ratio=1.40 / aq=1:1.00 Language : English Default : Yes Forced : No Audio ID : 2 Format : DTS Format/Info : Digital Theater Systems Codec ID : A_DTS Duration : 1 h 39 min Bit rate mode : Constant Bit rate : 1 509 kb/s Channel(s) : 6 channels Channel layout : C L R Ls Rs LFE Sampling rate : 48.0 kHz Frame rate : 93.750 FPS (512 SPF) Bit depth : 24 bits Compression mode : Lossy Stream size : 1.05 GiB (14%) Language : English Default : Yes Forced : No Text ID : 3 Format : UTF-8 Codec ID : S_TEXT/UTF8 Codec ID/Info : UTF-8 Plain Text Language : English Default : No Forced : No Menu 00:00:00.000 : en:00:00:00.000 00:04:56.713 : en:00:04:56.713 00:09:01.624 : en:00:09:01.624 00:14:23.780 : en:00:14:23.780 00:21:07.516 : en:00:21:07.516 00:23:39.585 : en:00:23:39.585 00:29:35.482 : en:00:29:35.482 00:37:41.384 : en:00:37:41.384 00:46:16.899 : en:00:46:16.899 00:53:51.311 : en:00:53:51.311 01:00:33.421 : en:01:00:33.421 01:06:57.805 : en:01:06:57.805 01:17:07.957 : en:01:17:07.957 01:17:57.339 : en:01:17:57.339 01:23:38.680 : en:01:23:38.680 01:26:26.223 : en:01:26:26.223 01:31:21.559 : en:01:31:21.559 01:35:17.921 : en:01:35:17.921

Discussion

Comments 0

Post Your Comment

Files in this torrent

FILENAMESIZE
Addams.Family.1991.1080p.BluRay.X264-AMIABLE.mkv7.6 GB
Addams.Family.1991.1080p.BluRay.X264-AMIABLE.nfo5.3 KB
RARBG.txt31 B

Alternative Torrents for 'Addams Family BluRay AMIABLE'.

TORRENT NAMEADDEDSIZESEEDSPEERSHEALTH
11/6/20207.7 GB00
10/5/201917.1 GB00
10/5/20199.9 GB00
10/5/20195.5 GB00
9/24/20137.7 GB00
9/24/20137.7 GB00
9/24/20134.4 GB00
9/24/20134.4 GB00