ConAir 1997 PROPER 1080p BluRay X264 DTS-FGT

Torrent Details


ConAir 1997 PROPER 1080p BluRay x264 DTS<span style=color:#fc9c6d>-FGT</span>

NAME
ConAir 1997 PROPER 1080p BluRay x264 DTS-FGT.torrent
CATEGORY
Movies
INFOHASH
9fa6bbc8153cb85e879a178207a11c4b1fbaaa9e
SIZE
11.7 GB in 2 files
ADDED
Uploaded on 06-11-2020 by our crawler pet called "Spidey".
SWARM
0 seeders & 0 peers
RATING
No votes yet.

Please login to vote for this torrent.


Description

帖子完整标题:空中监狱/惊天动地 ConAir.1997.1080p.BluRay.x264.DTS-FGT 11.72GB  空中监狱是美国运送全美最危险的罪犯而专设的飞机。卡麦伦(尼古拉斯?凯奇 Nicolas Cage 饰)坐上这趟飞机,不是因为他罪恶滔天,而是他为了赶在女儿生日那天,亲手给女儿一份礼物而申请的一次飞行。他在狱中表现良好,典狱官答应了他这个请求。然而,却有一个难题——在这趟飞机上,还押送着一帮杀人狂魔。    警探非常留神随时可能出现的危险,但防不胜防的是,飞行过程中那帮暴徒还是挟持了飞机上全部的警察,卡麦伦也被迫帮他们完成逃脱任务。    地面的联邦部队决定把飞机打下,把狂徒一网打尽,身陷险境的卡麦伦该逃出这个空中监狱?◎获奖情况  第70届奥斯卡金像奖 ?(1998)  最佳音响(提名) 格雷格·P·罗素?/?阿特·罗彻斯特?/?凯文·奥康奈尔  最佳原创歌曲(提名) 戴安·沃伦Video ID : 1 Format : AVC Format/Info : Advanced Video Codec Format profile : [email protected] Format settings : CABAC / 5 Ref Frames Format settings, CABAC : Yes Format settings, Reference frames : 5 frames Codec ID : V_MPEG4/ISO/AVC Duration : 1 h 55 min Bit rate : 12.7 Mb/s Width : 1 920 pixels Height : 816 pixels Display aspect ratio : 2.35:1 Frame rate mode : Constant Frame rate : 23.976 FPS Color space : YUV Chroma subsampling : 4:2:0 Bit depth : 8 bits Scan type : Progressive Bits/(Pixel*Frame) : 0.338 Stream size : 10.3 GiB (88%) Writing library : x264 core 104 r1703 cd21d05 Encoding settings : cabac=1 / ref=5 / deblock=1:-3:-3 / analyse=0x3:0x133 / me=umh / subme=10 / psy=1 / psy_rd=1.05:0.05 / mixed_ref=1 / me_range=64 / chroma_me=1 / trellis=2 / 8x8dct=1 / cqm=0 / deadzone=21,11 / fast_pskip=0 / chroma_qp_offset=-3 / threads=6 / sliced_threads=0 / nr=0 / decimate=1 / interlaced=0 / constrained_intra=0 / bframes=7 / b_pyramid=2 / b_adapt=2 / b_bias=0 / direct=3 / weightb=1 / open_gop=0 / weightp=2 / keyint=250 / keyint_min=23 / scenecut=40 / intra_refresh=0 / rc_lookahead=70 / rc=2pass / mbtree=1 / bitrate=12713 / ratetol=2.0 / qcomp=0.72 / qpmin=10 / qpmax=51 / qpstep=4 / cplxblur=20.0 / qblur=0.5 / vbv_maxrate=50000 / vbv_bufsize=50000 / ip_ratio=1.40 / aq=1:1.00 / nal_hrd=none Language : English Default : Yes Forced : No Audio ID : 2 Format : DTS Format/Info : Digital Theater Systems Codec ID : A_DTS Duration : 1 h 55 min Bit rate mode : Constant Bit rate : 1 510 kb/s Channel(s) : 6 channels Channel layout : C L R Ls Rs LFE Sampling rate : 48.0 kHz Frame rate : 93.750 FPS (512 SPF) Bit depth : 24 bits Compression mode : Lossy Stream size : 1.22 GiB (10%) Language : English Default : Yes Forced : No Text ID : 3 Format : UTF-8 Codec ID : S_TEXT/UTF8 Codec ID/Info : UTF-8 Plain Text Language : English Default : No Forced : No

Discussion

Comments 0

Post Your Comment

Files in this torrent

FILENAMESIZE
ConAir.1997.PROPER.1080p.BluRay.x264.DTS-FGT.mkv11.7 GB
ConAir.1997.PROPER.1080p.BluRay.x264.DTS-FGT.nfo4.2 KB

Alternative Torrents for 'ConAir PROPER BluRay DTS'.

TORRENT NAMEADDEDSIZESEEDSPEERSHEALTH
11/6/202011.7 GB00