Ella Henderson - Ghost [Music Video] 1080p [Sbyky]

Torrent Details


Ella Henderson - Ghost [Music Video] 1080p [Sbyky]

NAME
Ella Henderson - Ghost [Music Video] 1080p [Sbyky].torrent
CATEGORY
Music
INFOHASH
cf87f39fb897546a0db8e3d777d22a097b875135
SIZE
83 MB in 1 file
ADDED
Uploaded on 16-05-2014 by our crawler pet called "Spidey".
SWARM
0 seeders & 0 peers
RATING
No votes yet.

Please login to vote for this torrent.


Description

General
Complete name : Ella Henderson - Ghost [Music Video] 1080p [Sbyky].mp4
Format : MPEG-4
Format profile : Base Media
Codec ID : isom
File size : 82.9 MiB
Duration : 3mn 57s
Overall bit rate mode : Variable
Overall bit rate : 2 930 Kbps
Encoded date : UTC 2014-04-15 17:31:48
Tagged date : UTC 2014-04-15 17:31:48

Video
ID : 1
Format : AVC
Format/Info : Advanced Video Codec
Format profile : [email protected] /* */
Format settings, CABAC : Yes
Format settings, ReFrames : 2 frames
Codec ID : avc1
Codec ID/Info : Advanced Video Coding
Duration : 3mn 57s
Bit rate : 2 802 Kbps
Width : 1 920 pixels
Height : 1 080 pixels
Display aspect ratio : 16:9
Frame rate mode : Constant
Frame rate : 25.000 fps
Color space : YUV
Chroma subsampling : 4:2:0
Bit depth : 8 bits
Scan type : Progressive
Bits/(Pixel*Frame) : 0.054
Stream size : 79.3 MiB (96%)
Encoded date : UTC 2014-04-15 17:31:48
Tagged date : UTC 2014-04-15 17:31:48

Audio
ID : 2
Format : AAC
Format/Info : Advanced Audio Codec
Format profile : LC
Codec ID : 40
Duration : 3mn 57s
Bit rate mode : Variable
Bit rate : 126 Kbps
Channel(s) : 2 channels
Channel positions : Front: L R
Sampling rate : 44.1 KHz
Compression mode : Lossy
Stream size : 3.55 MiB (4%)
Encoded date : UTC 2014-04-15 17:31:26
Tagged date : UTC 2014-04-15 17:31:26

Shared By Sbyky

Discussion

Comments 0

Post Your Comment

Files in this torrent

FILENAMESIZE
Ella Henderson - Ghost [Music Video] 1080p [Sbyky].mp482.9 MB

Alternative Torrents for 'Ella Henderson Ghost Music Video Sbyky'.

TORRENT NAMEADDEDSIZESEEDSPEERSHEALTH
5/16/201483 MB00
5/16/201443 MB00