Charmsukh Sex Education 2020 Ullu 720p WEB-DL H264-AAC-Top10Torrent Site

Torrent Details


Charmsukh Sex Education 2020 Ullu 720p WEB-DL H264-AAC-Top10Torrent site

NAME
Charmsukh Sex Education 2020 Ullu 720p WEB-DL H264-AAC-Top10Torrent site.torrent
CATEGORY
Television
INFOHASH
0f77e599ca89d3a7a60efed4bbbbad0205e39c3e
SIZE
420 MB in 1 file
ADDED
Uploaded on 06-11-2020 by our crawler pet called "Spidey".
SWARM
0 seeders & 0 peers
RATING
No votes yet.

Please login to vote for this torrent.


Description







[font=Roboto][color=#e6194b][size=6]Click Here To Visit Our Site[/size][/color][/font]







Complete name                            : Charmsukh Sex Education 2020 Ullu 720p WEB-DL H264-AAC-Top10Torrent.site.mkv

Format                                   : Matroska

Format version                           : Version 4

File size                                : 420 MiB

Duration                                 : 36 min 15 s

Overall bit rate                         : 1 619 kb/s

Movie name                               : Top10Torrent.site

Encoded date                             : UTC 2020-10-04 09:07:56

Writing application                      : mkvmerge v50.0.0 ('Awakenings') 64-bit

Writing library                          : libebml v1.4.0 + libmatroska v1.6.2

Video

ID                                       : 1

Format                                   : AVC

Format/Info                              : Advanced Video Codec

Format profile                           : [email protected]

Format settings                          : CABAC / 4 Ref Frames

Format settings, CABAC                   : Yes

Format settings, Reference frames        : 4 frames

Codec ID                                 : V_MPEG4/ISO/AVC

Duration                                 : 36 min 15 s

Bit rate                                 : 1 500 kb/s

Width                                    : 1 280 pixels

Height                                   : 720 pixels

Display aspect ratio                     : 16:9

Frame rate mode                          : Constant

Frame rate                               : 25.000 FPS

Color space                              : YUV

Chroma subsampling                       : 4:2:0

Bit depth                                : 8 bits

Scan type                                : Progressive

Bits/(Pixel*Frame)                       : 0.065

Stream size                              : 386 MiB (92%)

Title                                    : Top10Torrent.site

Writing library                          : x264 core 159

Encoding settings                        : cabac=1 / ref=1 / deblock=1:0:0 / analyse=0x3:0x113 / me=hex / subme=2 / psy=1 / psy_rd=1.00:0.00 / mixed_ref=0 / me_range=16 / chroma_me=1 / trellis=0 / 8x8dct=1 / cqm=0 / deadzone=21,11 / fast_pskip=1 / chroma_qp_offset=0 / threads=18 / lookahead_threads=5 / sliced_threads=0 / nr=0 / decimate=1 / interlaced=0 / bluray_compat=0 / constrained_intra=0 / bframes=3 / b_pyramid=2 / b_adapt=1 / b_bias=0 / direct=1 / weightb=1 / open_gop=0 / weightp=1 / keyint=250 / keyint_min=25 / scenecut=40 / intra_refresh=0 / rc_lookahead=10 / rc=abr / mbtree=1 / bitrate=1500 / ratetol=1.0 / qcomp=0.60 / qpmin=0 / qpmax=69 / qpstep=4 / ip_ratio=1.40 / aq=1:1.00

Default                                  : Yes

Forced                                   : No

Audio

ID                                       : 2

Format                                   : AAC LC

Format/Info                              : Advanced Audio Codec Low Complexity

Codec ID                                 : A_AAC-2

Duration                                 : 36 min 15 s

Bit rate                                 : 128 kb/s

Channel(s)                               : 2 channels

Channel layout                           : L R

Sampling rate                            : 48.0 kHz

Frame rate                               : 46.875 FPS (1024 SPF)

Compression mode                         : Lossy

Stream size                              : 33.2 MiB (8%)

Title                                    : Top10Torrent.site

Default                                  : Yes

Forced                                   : No











Discussion

Comments 0

Post Your Comment

Files in this torrent

FILENAMESIZE
Charmsukh Sex Education 2020 Ullu 720p WEB-DL H264-AAC-Top10Torrent.site.mkv419.9 MB

Alternative Torrents for 'Charmsukh Sex Education Ullu HAACTopTorrent site'.

There are no alternative torrents found.