Whitesnake - Love Songs (2020 Remix)(2020)

Torrent Details


Whitesnake - Love Songs (2020 Remix)<span style=color:#777>(2020)</span>

NAME
Whitesnake - Love Songs (2020 Remix)(2020).torrent
CATEGORY
Music
INFOHASH
dbb7f96f11935ad98efaccd86c4c0c836a07c485
SIZE
1.1 GB in 19 files
ADDED
Uploaded on 08-11-2020 by our crawler pet called "Spidey".
SWARM
1 seeders & 0 peers
RATING
No votes yet.

Please login to vote for this torrent.


Description





Исполнитель: Whitesnake | Название: Love Songs

Страна: UK/USA | Жанр: Rock

Год: 2020 | Продолжительность: 01:18:11

Битрейт аудио: Lossless

Формат/Кодек: FLAC

Тип рипа: image+.cue

Наличие сканов в содержимом раздачи: Да

Источник/Релизер: BORIS'De







tracklist01. Love Will Set You Free (2020 Remix)

02. The Deeper The Love (2020 Remix)

03. All I Want, All I Need (2020 Remix)

04. Too Many Tears (2020 Remix)

05. Can't Go On (2020 Remix)

06. Is This Love (2020 Remix)

07. With All Of My Heart (2020 Remix)

08. Summer Rain (2020 Remix)

09. Your Precious Love (2020 Remix)

10. Now You're Gone (2020 Remix)

11. Don't You Cry (2020 Remix)

12. Midnight Blue (2020 Remix)

13. Easier Said Than Done (2020 Remix)

14. Yours For The Asking (2020 Remix)

15. Let's Talk It Over (2020 Remix)Лог создания рипа

Exact Audio Copy V1.1 from 23. June 2015

EAC extraction logfile from 7. November 2020, 12:04

Whitesnake / Love Songs

Used drive : MATSHITADVD+-RW SW830 Adapter: 1 ID: 0

Read mode : Secure

Utilize accurate stream : Yes

Defeat audio cache : Yes

Make use of C2 pointers : No

Read offset correction : 6

Overread into Lead-In and Lead-Out : No

Fill up missing offset samples with silence : Yes

Delete leading and trailing silent blocks : No

Null samples used in CRC calculations : Yes

Used interface : Native Win32 interface for Win NT & 2000

Used output format : User Defined Encoder

Selected bitrate : 768 kBit/s

Quality : High

Add ID3 tag : No

Command line compressor : C:Program Files (x86)Exact Audio CopyFLACFLAC.EXE

Additional command line options : -6 -V -T "ARTIST=%artist%" -T "TITLE=%title%" -T "ALBUM=%albumtitle%" -T "DATE=%year%" -T "TRACKNUMBER=%tracknr%" -T "GENRE=%genre%" -T "COMMENT=%comment%" -T "BAND=%albuminterpret%" -T "ALBUMARTIST=%albuminterpret%" -T "COMPOSER=%composer%" %haslyrics%--tag-from-file=LYRICS="%lyricsfile%"%haslyrics% -T "DISCNUMBER=%cdnumber%" -T "TOTALDISCS=%totalcds%" -T "TOTALTRACKS=%numtracks%" %hascover%--picture="%coverfile%"%hascover% %source% -o %dest%

TOC of the extracted CD

Track | Start | Length | Start sector | End sector

---------------------------------------------------------

1 | 0:00.00 | 4:07.70 | 0 | 18594

2 | 4:07.70 | 4:01.58 | 18595 | 36727

3 | 8:09.53 | 5:41.47 | 36728 | 62349

4 | 13:51.25 | 6:09.21 | 62350 | 90045

5 | 20:00.46 | 4:30.09 | 90046 | 110304

6 | 24:30.55 | 5:04.45 | 110305 | 133149

7 | 29:35.25 | 5:36.38 | 133150 | 158387

8 | 35:11.63 | 6:01.35 | 158388 | 185497

9 | 41:13.23 | 4:33.67 | 185498 | 206039

10 | 45:47.15 | 4:11.71 | 206040 | 224935

11 | 49:59.11 | 5:30.28 | 224936 | 249713

12 | 55:29.39 | 4:48.74 | 249714 | 271387

13 | 60:18.38 | 5:14.62 | 271388 | 294999

14 | 65:33.25 | 4:29.48 | 295000 | 315222

15 | 70:02.73 | 8:08.29 | 315223 | 351851

Range status and errors

Selected range

Filename C:UsersBorisDesktoplossless-galaxy.ruwhtsnk202Whitesnake - Love Songs.wav

Peak level 100.0 %

Extraction speed 3.5 X

Range quality 100.0 %

Test CRC 19E5309A

Copy CRC 19E5309A

Copy OK

No errors occurred

AccurateRip summary

Track 1 not present in database

Track 2 not present in database

Track 3 not present in database

Track 4 not present in database

Track 5 not present in database

Track 6 not present in database

Track 7 not present in database

Track 8 not present in database

Track 9 not present in database

Track 10 not present in database

Track 11 not present in database

Track 12 not present in database

Track 13 not present in database

Track 14 not present in database

Track 15 not present in database

None of the tracks are present in the AccurateRip database

End of status report

---- CUETools DB Plugin V2.1.6

[CTDB TOCID: Fy.TYMPYPNGheJrmj6p2H6_jxmU-] found

Submit result: already submitted

Track | CTDB Status

1 | (3/3) Accurately ripped

2 | (3/3) Accurately ripped

3 | (3/3) Accurately ripped

4 | (3/3) Accurately ripped

5 | (3/3) Accurately ripped

6 | (3/3) Accurately ripped

7 | (3/3) Accurately ripped

8 | (3/3) Accurately ripped

9 | (3/3) Accurately ripped

10 | (3/3) Accurately ripped

11 | (3/3) Accurately ripped

12 | (3/3) Accurately ripped

13 | (3/3) Accurately ripped

14 | (3/3) Accurately ripped

15 | (3/3) Accurately ripped

==== Log checksum 34E45241F8CF79CF8C5E3B44EA3E1F2D71983A89501A7E781EB58412413AE948 ====DRfoobar2000 1.3.13 / Замер динамического диапазона (DR) 1.1.1

Дата отчёта: 2020-11-07 12:20:21



--------------------------------------------------------------------------------

Анализ: Whitesnake / Love Songs

--------------------------------------------------------------------------------



DR Пики RMS Продолжительность трека

--------------------------------------------------------------------------------

DR5 0.00 дБ -6.43 дБ 4:08 01-Love Will Set You Free

DR5 0.00 дБ -6.28 дБ 4:02 02-The Deeper The Love

DR6 0.00 дБ -7.37 дБ 5:42 03-All I Want, All I Need

DR6 -0.23 дБ -7.11 дБ 6:09 04-Too Many Tears

DR5 -0.58 дБ -6.73 дБ 4:30 05-Can't Go On

DR6 -0.41 дБ -7.21 дБ 5:05 06-Is This Love

DR5 -1.00 дБ -7.12 дБ 5:37 07-With All Of My Heart

DR5 -0.63 дБ -7.55 дБ 6:01 08-Summer Rain

DR6 -0.65 дБ -7.76 дБ 4:34 09-Your Precious Love

DR5 -0.13 дБ -6.90 дБ 4:12 10-Now You're Gone

DR5 -0.68 дБ -7.10 дБ 5:30 11-Don't You Cry

DR6 -0.53 дБ -7.71 дБ 4:49 12-Midnight Blue

DR5 -1.10 дБ -7.13 дБ 5:15 13-Easier Said Than Done

DR5 -1.06 дБ -7.20 дБ 4:30 14-Yours For The Asking

DR5 -0.60 дБ -7.35 дБ 8:08 15-Let's Talk It Over

--------------------------------------------------------------------------------



Количество треков: 15

Реальные значения DR: DR5



Частота: 44100 Гц

Каналов: 2

Разрядность: 16

Битрейт: 1027 кбит/с

Кодек: FLAC

================================================================================

Discussion

Comments 0

Post Your Comment

Files in this torrent

FILENAMESIZE
covers/IMG_20201107_0001.tif25.1 MB
covers/IMG_20201107_0002.tif53 MB
covers/IMG_20201107_0003.tif52.6 MB
covers/IMG_20201107_0004.tif41.2 MB
covers/IMG_20201107_0005.tif41.4 MB
covers/IMG_20201107_0006.tif42.8 MB
covers/IMG_20201107_0007.tif42 MB
covers/IMG_20201107_0008.tif42.9 MB
covers/IMG_20201107_0009.tif42.2 MB
covers/IMG_20201107_0010.tif43 MB
covers/IMG_20201107_0011.tif42.2 MB
covers/IMG_20201107_0012.tif43.1 MB
covers/IMG_20201107_0013.tif42.6 MB
covers/IMG_20201107_0014.tif22.5 MB
foo_dr.txt1.9 KB
tracklist.txt730 B
Whitesnake - Love Songs.cue1.9 KB
Whitesnake - Love Songs.flac574.5 MB
Whitesnake - Love Songs.log8.2 KB

Alternative Torrents for 'Whitesnake Love Songs Remix'.

TORRENT NAMEADDEDSIZESEEDSPEERSHEALTH
11/5/2020180 MB500
11/8/20201.1 GB10
11/7/2020181 MB10
11/6/20201.7 GB10
11/5/2020575 MB10
11/5/2020180 MB10
11/5/2020180 MB00
11/5/2020575 MB00