Il Colore Venuto Dallo Spazio - Color Out Of Space (2019) 720p H264 Ita Eng Sub Ita Eng-MIRCrew

Torrent Details


Il colore venuto dallo spazio - Color Out of Space (2019) 720p h264 ita eng sub ita eng<span style=color:#fc9c6d>-MIRCrew</span>

NAME
Il colore venuto dallo spazio - Color Out of Space (2019) 720p h264 ita eng sub ita eng-MIRCrew.torrent
CATEGORY
Movies
INFOHASH
f27d21988595909b9d148e6435ccf98d46d2161d
SIZE
2.1 GB in 4 files
ADDED
Uploaded on 08-11-2020 by our crawler pet called "Spidey".
SWARM
0 seeders & 0 peers
RATING
No votes yet.

Please login to vote for this torrent.


Description

Color Out of Space - Il colore venuto dallo spazio (2019).720p.H264.ita.eng.Ac3.sub.ita.eng-MIRCrew





NO FOUND ONLY ORIGINAL RELEASE



My release is always in double track audio italian and Original audio

for select it use VLC or dvd player home

not use wmp



Il colore venuto dallo spazio - Color Out of Space (2019)



Quality MIRCrew on HD 720p da 2,1 gb



















Lingua originale inglese

Paese di produzione Stati Uniti d'America

Anno 2019

Durata 111 min

Rapporto 2,39:1

Genere orrore, fantascienza

Regia Richard Stanley

Soggetto dal racconto di Howard Phillips Lovecraft

Sceneggiatura Richard Stanley, Scarlett Amaris







   Nicolas Cage: Nathan Gardner

   Joely Richardson: Theresa Gardner

   Madeleine Arthur: Lavinia Gardner

   Brendan Meyer: Benny Gardner

   Julian Hilliard: Jack Gardner

   Elliot Knight: Ward Phillips

   Josh C. Waller: Sceriffo Pierce

   Q'orianka Kilcher: Sindaco Tooma

   Tommy Chong: Ezra







La famiglia Gardner si trasferisce in una remota fattoria del New England per sfuggire alla frenesia del XXI secolo. Mentre si adattano a questa nuova vita, un meteorite si schianta davanti alla loro casa e sembra fondersi con il suolo, infettando sia il terreno sia le proprietà dello spazio-tempo con uno strano colore extraterrestre







A secluded farm is struck by a strange meteorite which has apocalyptic consequences for the family living there and possibly the world.



 





























General



Complete name                            : Il colore venuto dallo spazio - Color Out of Space (2019).720p.h264.ita.eng.sub.ita.eng-MIRCrewIl colore venuto dallo spazio - Color Out of Space (2019).720p.h264.ita.eng.sub.ita.eng-MIRCrew.mkv

Format                                   : Matroska

Format version                           : Version 2

File size                                : 2.12 GiB

Duration                                 : 1h 50mn

Overall bit rate                         : 2 752 Kbps

Movie name                               : MIRCrew

Encoded date                             : UTC 2020-10-25T16:33:18Z

Writing application                      : mkvmerge v5.8.0 ('No Sleep / Pillow') built on Sep  2 2012 15:37:04

Writing library                          : Lavf55.12.0



Video

ID                                       : 1

Format                                   : AVC

Format/Info                              : Advanced Video Codec

Format profile                           : [email protected]

Format settings, CABAC                   : Yes

Format settings, ReFrames                : 4 frames

Codec ID                                 : V_MPEG4/ISO/AVC

Duration                                 : 1h 50mn

Bit rate                                 : 2 000 Kbps

Width                                    : 1 280 pixels

Height                                   : 560 pixels

Display aspect ratio                     : 2.25:1

Frame rate                               : 23.976 fps

Color space                              : YUV

Chroma subsampling                       : 4:2:0

Bit depth                                : 8 bits

Scan type                                : Progressive

Bits/(Pixel*Frame)                       : 0.116

Stream size                              : 1.49 GiB (70%)

Title                                    : MIRCrew

Writing library                          : x264 core 142 r2479 dd79a61

Encoding settings                        : cabac=1 / ref=1 / deblock=1:0:0 / analyse=0x1:0x111 / me=hex / subme=2 / psy=1 / psy_rd=1.00:0.00 / mixed_ref=0 / me_range=16 / chroma_me=1 / trellis=0 / 8x8dct=0 / cqm=0 / deadzone=21,11 / fast_pskip=1 / chroma_qp_offset=0 / threads=9 / lookahead_threads=3 / sliced_threads=0 / nr=0 / decimate=1 / interlaced=0 / bluray_compat=0 / constrained_intra=0 / bframes=3 / b_pyramid=2 / b_adapt=1 / b_bias=0 / direct=1 / weightb=1 / open_gop=0 / weightp=1 / keyint=240 / keyint_min=24 / scenecut=40 / intra_refresh=0 / rc_lookahead=10 / rc=abr / mbtree=1 / bitrate=2000 / ratetol=1.0 / qcomp=0.60 / qpmin=0 / qpmax=69 / qpstep=4 / vbv_maxrate=50000 / vbv_bufsize=62500 / nal_hrd=none / filler=0 / ip_ratio=1.40 / aq=1:1.00

Language                                 : Italian

Default                                  : Yes

Forced                                   : No

Color primaries                          : BT.709-5, BT.1361, IEC 61966-2-4, SMPTE RP177

Transfer characteristics                 : BT.709-5, BT.1361

Matrix coefficients                      : BT.709-5, BT.1361, IEC 61966-2-4 709, SMPTE RP177



Audio #1

ID                                       : 2

Format                                   : AC-3

Format/Info                              : Audio Coding 3

Mode extension                           : CM (complete main)

Codec ID                                 : A_AC3

Duration                                 : 1h 50mn

Bit rate mode                            : Constant

Bit rate                                 : 384 Kbps

Channel(s)                               : 6 channels

Channel positions                        : Front: L C R, Side: L R, LFE

Sampling rate                            : 48.0 KHz

Bit depth                                : 16 bits

Compression mode                         : Lossy

Delay relative to video                  : -5ms

Stream size                              : 303 MiB (14%)

Title                                    : Ita Ac3 5.1

Language                                 : Italian

Default                                  : Yes

Forced                                   : No



Audio #2

ID                                       : 3

Format                                   : AC-3

Format/Info                              : Audio Coding 3

Mode extension                           : CM (complete main)

Codec ID                                 : A_AC3

Duration                                 : 1h 50mn

Bit rate mode                            : Constant

Bit rate                                 : 384 Kbps

Channel(s)                               : 6 channels

Channel positions                        : Front: L C R, Side: L R, LFE

Sampling rate                            : 48.0 KHz

Bit depth                                : 16 bits

Compression mode                         : Lossy

Delay relative to video                  : -5ms

Stream size                              : 303 MiB (14%)

Title                                    : Eng Ac3 5.1

Language                                 : English

Default                                  : No

Forced                                   : No



Menu

00:00:00.000                             : :00:00:00.000

00:15:37.686                             : :00:15:37.583

00:30:00.799                             : :00:30:00.625

00:43:27.938                             : :00:43:27.833

01:00:20.241                             : :01:00:20.000

01:10:45.991                             : :01:10:45.792

01:28:25.633                             : :01:28:25.542

01:46:22.542                             : :01:46:22.417









Discussion

Comments 0

Post Your Comment

Files in this torrent

FILENAMESIZE
Il colore venuto dallo spazio - Color Out of Space (2019).720p.h264.ita.eng.sub.ita.eng-MIRCrew.eng.srt76.4 KB
Il colore venuto dallo spazio - Color Out of Space (2019).720p.h264.ita.eng.sub.ita.eng-MIRCrew.ita.srt80.6 KB
Il colore venuto dallo spazio - Color Out of Space (2019).720p.h264.ita.eng.sub.ita.eng-MIRCrew.mkv2.1 GB
Il colore venuto dallo spazio - Color Out of Space (2019).720p.h264.ita.eng.sub.ita.eng-MIRCrew.srt607 B

Alternative Torrents for 'Il colore venuto dallo spazio Color Out of Space eng sub eng'.

TORRENT NAMEADDEDSIZESEEDSPEERSHEALTH
11/8/20202.1 GB00
10/25/20202.8 GB00